новый адрес
Мега распродажа FORZA HORIZON 4 ULTIMATE+ВСЕ DLC+ОНЛАЙН всего за 499р. 349 руб. (супер цена). Внимание количество ограничено!!!

iTunes

1+1

iTunes

мы

iTunes

1

iTunes

Чернобыль

iTunes

Ральф против интернета

Лицензия

ПШазам

Лицензия

Оно 2

Лицензия

30
pack

ВАЖНО

!!Акция!!

Alien_RageХит недели

RePack

Resident Evil 21

ИГРА 18+

pack

RePack

Metro:Exodus

!!Акция!!

Alien_Rage

RePack

fifa19

RePack

Assassins Creed: Odyssey

RePack

NEED FOR SPEED™ PAYBACK

3 сезон

9 сезон

Бесстыжие 9 сезон

Все сериалы

все сериалы на PB.wtf

RePack

FAR CRY 5
Ребята, катастрофически не хватает 1900р. для оплаты серверов за Октябрь (всвязи с блокировками трафик упал в 3 раза), 1-2р., выручайте.
  

Степь (Сергей Бондарчук) [1977, драма, DVDRip-AVC от KORSAR] pb.wtf

Степь через торрент pb.wtf

Раздают: 1 [ 0 KB/s ]
Размер: 1.28 GB | Добавлен: 2 мес. 4 д. назад | Торрент скачан:8 раз
Скачать  

16-09-2019 16:14 Степь Скачать торрент  

Степь

Жанр: драма
Год выпуска: 1977
Продолжительность: 01:12:36 + 00:53:14
Режиссёр: Сергей Бондарчук
В ролях: Олег Кузнецов (II), Владимир Седов, Николай Трофимов, Сергей Бондарчук, Иван Лапиков, Георгий Бурков, Станислав Любшин, Иннокентий Смоктуновский, Анатолий Васильев (II), Валерий Захарьев, Игорь Кваша, Лилиан Малкина, Виктор Мамаев, Ирина Скобцева, Елена Савченко

Описание: Сценарий Сергей Бондарчук. По одноименному произведению А. Чехова. 2 серии.
«Степь» Бондарчук реализовал свою давнюю мечту — перенести на экран одно из своих любимых литературных произведений. «...Фильм отчего-то не пользуется особой любовью телевизионщиков, хотя режиссёр собрал в нём весь цвет советского кино.»

Релиз от:

Качество: DVDRip-AVC
Формат: MKV

Видео: MPEG-4 AVC, 694x572@740x572, 25 fps, 1233 Кбит/с
Аудио: AC3, 2 ch, 192 Кбит/с
Язык: Русский

  • x264 [info]: frame I:1050 Avg QP:16.52 size: 47632
  • x264 [info]: frame P:43299 Avg QP:19.15 size: 16140
  • x264 [info]: frame B:145016 Avg QP:20.48 size: 3063
  • x264 [info]: consecutive B-frames: 4.4% 3.4% 6.5% 15.1% 16.9% 30.4% 8.9% 10.5% 1.8% 1.4% 0.8%
Общее
Уникальный идентификатор : 174246981828953605343646538983692526124 (0x8316BF7D14F620348F2C5FDA188B622C)
Полное имя : D:\Степь_1977-DVDRip-AVC_KORSAR.mkv
Формат : Matroska
Версия формата : Version 2
Размер файла : 1,28 Гбайт
Продолжительность : 2 ч. 6 м.
Общий поток : 1454 Кбит/сек
Название фильма : Степь_1977-DVDRip-AVC_KORSAR
Дата кодирования : UTC 2019-09-10 20:24:43
Программа кодирования : mkvmerge v5.8.0 ('No Sleep / Pillow') built on Sep 2 2012 15:37:04
Библиотека кодирования : libebml v1.2.3 + libmatroska v1.3.0

Видео
Идентификатор : 1
Формат : AVC
Формат/Информация : Advanced Video Codec
Профиль формата : High@L4.1
Настройки формата : CABAC / 15 Ref Frames
Параметр CABAC формата : Да
Параметр RefFrames формата : 15 кадров
Идентификатор кодека : V_MPEG4/ISO/AVC
Продолжительность : 2 ч. 6 м.
Битрейт : 1233 Кбит/сек
Ширина : 694 пикселя
Высота : 572 пикселя
Соотношение сторон : 1,294
Режим частоты кадров : Постоянный
Частота кадров : 25,000 кадров/сек
Цветовое пространство : YUV
Субдискретизация насыщенности : 4:2:0
Битовая глубина : 8 бит
Тип развёртки : Прогрессивная
Бит/(Пиксели*Кадры) : 0.124
Размер потока : 1,09 Гбайт (85%)
Библиотека кодирования : x264 core 152 r2851kMod ba24899
Настройки программы : cabac=1 / ref=15 / deblock=1:-2:-1 / analyse=0x3:0x133 / me=umh / subme=10 / psy=1 / fade_compensate=0.00 / psy_rd=1.05:0.10 / mixed_ref=1 / me_range=40 / chroma_me=1 / trellis=2 / 8x8dct=1 / cqm=0 / deadzone=21,11 / fast_pskip=1 / chroma_qp_offset=-3 / threads=18 / lookahead_threads=4 / sliced_threads=0 / nr=0 / decimate=1 / interlaced=0 / bluray_compat=0 / constrained_intra=0 / bframes=10 / b_pyramid=2 / b_adapt=2 / b_bias=0 / direct=1 / weightb=1 / open_gop=0 / weightp=2 / keyint=250 / keyint_min=25 / scenecut=40 / intra_refresh=0 / rc=crf / mbtree=0 / crf=19.5000 / qcomp=0.63 / qpmin=0 / qpmax=30 / qpstep=4 / ip_ratio=1.40 / pb_ratio=1.30 / aq=1:1.00
Язык : English
Default : Да
Forced : Нет
Цветовой диапазон : Limited
Основные цвета : BT.601 PAL
Характеристики трансфера : BT.470 System B/G
Коэффициенты матрицы : BT.470 System B/G

Аудио
Идентификатор : 2
Формат : AC-3
Формат/Информация : Audio Coding 3
Коммерческое название : Dolby Digital
Идентификатор кодека : A_AC3
Продолжительность : 2 ч. 6 м.
Вид битрейта : Постоянный
Битрейт : 192 Кбит/сек
Каналы : 2 канала
ChannelLayout : L R
Частота : 48,0 КГц
Частота кадров : 31,250 кадров/сек (1536 SPF)
Битовая глубина : 16 бит
Метод сжатия : С потерями
Размер потока : 173 Мбайт (13%)
Язык : Russian
ServiceKind/String : Complete Main
Default : Да
Forced : Нет
pb.wtf



Скачать Степь через торрент https://b.radikal.ru/b30/1909/88/d9e8d8076b1b.png Скачать фильм Степь через торрент бесплантно в хорошем качестве Описание: Сценарий Сергей Бондарчук. По одноименному произведению А. Чехова. 2 серии.«Степь» Бондарчук реализовал свою давнюю мечту — ... 9.5 10 2
Info! Золотая раздача, скачанное не засчитывается.
Торрент: Зарегистрирован [2019-09-16 16:14] · скачан: 8 раз
Статус: √ проверено
Размер: 1.28 GB
Как cкачать? Как скачать Степь через торрент | qTorrent

% Раздел Тема Автор DL S | L
Фантастика [ 228 MB ] Калбазов Константин - Рыцарь 2. Степь [Дамир Мударисов 2019 64 kbps MP3] bober100 Скачать
1 | 0
Кино СССР [ 1.09 GB ] Двое в степи [1962 СССР военный SATRip-AVC от AVP Studio] AVP Studio Скачать
1 | 0
Кино СССР [ 1.09 GB ] Двое в степи [1962 СССР военный SATRip от AVP Studio] AVP Studio Скачать
1 | 0
Фантастика [ 985 MB ] Константин Калбазов - Город в степи [Дамир Мударисов 2018 192 kbps MP3] oleg8 Скачать
1 | 0
Фильмы (мультфильмы) cо спонсором показа (Новинки AVI/MKV) [ 1.42 GB ] Сёстры по степу / Step Sisters WEBRip 720p | GreenРай Studio DEVI Скачать
1 | 0
T Фильмы (мультфильмы) cо спонсором показа (Новинки AVI/MKV) [ 3.51 GB ] Сёстры по степу / Step Sisters [2018 WEB-DL 720p] MVO ["Синема УС"] bober100 Скачать
1 | 0
T Фильмы (мультфильмы) cо спонсором показа (Новинки AVI/MKV) [ 1.46 GB ] Сёстры по степу / Step Sisters [2018 WEB-DLRip] MVO ["Синема УС"] bober100 Скачать
1 | 0


>> Регистрируемся здесь <<






Отзывы и комментарии о схеме читаем и пишем здесь: ---> Отзывы и комментарии о схеме

Новые благодарочки в телеграм довольных пользователей:
скриншот   скриншот   скриншот   скриншот   скриншот
    Дорогой пользователь! Огромная просьба, поблагодарите релизера, оцените раздачу и оставьте свои комментарий, если Вы скачали Степь через торрент бесплатно! Внесите свою лепту в развитие PiratBit!
    Комментировать посты могут только пользователи прошедшие не сложную регистрацию
    Показать сообщения:    

    Степь через торрент
    Скачать бесплатно Степь
    Степь скачать торрент
    Степь смотреть онлайн
    Cкачать фильм Степь бесплатно
    Степь скачать торрент в хорошем качестве
    Степь смотреть онлайн бесплатно в хорошем качестве


    Вы не можете начинать темы
    Вы не можете отвечать на сообщения
    Вы не можете редактировать свои сообщения
    Вы не можете удалять свои сообщения
    Вы не можете голосовать в опросах
    Вы не можете прикреплять файлы к сообщениям
    Вы можете скачивать файлы