Ссылка на приватное зеркало нашего сайта всего за 1$. Внимание количество ограничено!!!

2 сезон

iTunes

1 сезон

1

2 сезон

2 сезон

iTunes

1 сезон

RePack

30

Ultimate

ВАЖНО

ИГРА 18+

pack

RePack

MK11
pack

Забери бонус

RePack

jed

!!Акция!!

Alien_Rage

RePack

fifa19

RePack

Assassins Creed: Odyssey

RePack

NEED FOR SPEED™ PAYBACK

4 сезон

9 сезон

Бесстыжие 9 сезон

Все сериалы

все сериалы на PB.wtf

RePack

FAR CRY 5
  

Маленькое красное платье / In Fabric (Питер Стриклэнд) [2018, Ужасы, комедия, BD Remux 1080p] MVO [iTunes] pb.wtf

Маленькое красное платье через торрент pb.wtf

Размер: 25.05 GB | Добавлен: 1 год 2 мес. назад | Торрент скачан:13 раз
Скачать  

17-09-2019 03:12 Маленькое красное платье Скачать торрент  

Маленькое красное платье / In Fabric
«Красота требует жертв»

Год выпуска: 2018
Страна: Великобритания
Жанр: Ужасы, комедия
Продолжительность: 01:58:42
Перевод: Профессиональный (многоголосый) | iTunes
Субтитры: Английские

Режиссер: Питер Стриклэнд

rating

В ролях: Гвендолин Кристи, Сидсе Бабетт Кнудсен, Кэролайн Катц, Джулиан Бэррэтт, Марианн Жан-Баптист, Хейли Сквайрс, Ричард Бреммер, Лео Билл, Стив Орам, Сузанна Каппельяро

Описание: Маленькое красное платье стоит в витрине. Оно невероятно красиво и идеально подходит каждой, кто его примеряет. Оно делает тебя желанной, но у платья есть цена. И не каждый сможет ее заплатить.

Качество: BD Remux 1080p
Формат: MKV

Видео: MPEG-4 AVC, 1920x1080, 26.6 Mbit/s, 24 fps
Аудио#1: 48 kHz, AC3, 5.1, 384 Kbps | iTunes | RUS |
Аудио#2: 48 kHz, DTS-HD MA, 5.1, 3262 Kbps | Оригинал | ENG |
скриншот  скриншот  скриншот  скриншот  скриншот  

General
Unique ID : 100304592766955425190674205653020288637 (0x4B75F63D91442D7DEDD6F5D6C4ADA67D)
Complete name : D:Video111In.Fabric.2018.BDREMUX.1080p.seleZen.mkv
Format : Matroska
Format version : Version 4
File size : 25.1 GiB
Duration : 1 h 58 min
Overall bit rate mode : Variable
Overall bit rate : 30.2 Mb/s
Movie name : In Fabric 2018 from селезень
Encoded date : UTC 2019-09-16 10:52:16
Writing application : mkvmerge v22.0.0 ('At The End Of The World') 64-bit
Writing library : libebml v1.3.5 + libmatroska v1.4.8

Video
ID : 1
Format : AVC
Format/Info : Advanced Video Codec
Format profile : High@L4.1
Format settings : CABAC / 4 Ref Frames
Format settings, CABAC : Yes
Format settings, Reference : 4 frames
Codec ID : V_MPEG4/ISO/AVC
Duration : 1 h 58 min
Bit rate mode : Variable
Bit rate : 26.6 Mb/s
Maximum bit rate : 35.0 Mb/s
Width : 1 920 pixels
Height : 1 080 pixels
Display aspect ratio : 16:9
Frame rate mode : Constant
Frame rate : 24.000 FPS
Color space : YUV
Chroma subsampling : 4:2:0
Bit depth : 8 bits
Scan type : Progressive
Bits/(Pixel*Frame) : 0.534
Stream size : 22.0 GiB (88%)
Language : English
Default : Yes
Forced : No

Audio #1
ID : 2
Format : AC-3
Format/Info : Audio Coding 3
Commercial name : Dolby Digital
Codec ID : A_AC3
Duration : 1 h 58 min
Bit rate mode : Constant
Bit rate : 384 kb/s
Channel(s) : 6 channels
Channel layout : L R C LFE Ls Rs
Sampling rate : 48.0 kHz
Frame rate : 31.250 FPS (1536 SPF)
Bit depth : 16 bits
Compression mode : Lossy
Stream size : 326 MiB (1%)
Title : iTunes
Language : Russian
Service kind : Complete Main
Default : Yes
Forced : Yes

Audio #2
ID : 3
Format : DTS XLL
Format/Info : Digital Theater Systems
Commercial name : DTS-HD Master Audio
Codec ID : A_DTS
Duration : 1 h 58 min
Bit rate mode : Variable
Bit rate : 3 262 kb/s
Channel(s) : 6 channels
Channel layout : C L R Ls Rs LFE
Sampling rate : 48.0 kHz
Frame rate : 93.750 FPS (512 SPF)
Bit depth : 24 bits
Compression mode : Lossless
Stream size : 2.70 GiB (11%)
Title : Original
Language : English
Default : No
Forced : No

Text
ID : 4
Format : UTF-8
Codec ID : S_TEXT/UTF8
Codec ID/Info : UTF-8 Plain Text
Duration : 1 h 56 min
Bit rate : 51 b/s
Count of elements : 1209
Stream size : 43.7 KiB (0%)
Title : SDH
Language : English
Default : No
Forced : No

Menu
00:00:00.000 : :Chapter 01
00:07:20.000 : :Chapter 02
00:17:53.000 : :Chapter 03
00:24:32.000 : :Chapter 04
00:37:39.875 : :Chapter 05
00:57:11.750 : :Chapter 06
01:05:46.917 : :Chapter 07
01:14:55.625 : :Chapter 08
01:27:47.792 : :Chapter 09
01:39:48.333 : :Chapter 10
01:46:39.333 : :Chapter 11
01:53:46.958 : :Chapter 12

pb.wtf



Скачать Маленькое красное платье через торрент https://img15.lostpic.net/2019/09/16/3e40f2815719085e093dbc5aa0cbc493.jpg Скачать фильм Маленькое красное платье через торрент бесплантно в хорошем качестве Описание: Маленькое красное платье стоит в витрине. Оно невероятно красиво и идеально подходит каждой, кто его примеряет. Оно делает тебя ... 10 10 3
Торрент: Зарегистрирован [2019-09-17 03:12] · скачан: 13 раз
Статус: √ проверено
Размер: 25.05 GB
Как cкачать? Как скачать Маленькое красное платье через торрент | qTorrent

% Раздел Тема Автор DL S | L
Фильмы [HD 720p, 1080p] (Хороший звук DUB, MVO) [ 14.23 GB ] Маленькое красное платье / In Fabric [2018 BDRip 1080p] MVO bober100 Скачать
1 | 0
Фильмы 2018 [DVDrip, WEB-DLRip, HDrip] (DUB, MVO) [ 2.13 GB ] Маленькое красное платье / In Fabric [2018 BDRip] MVO Twi7ter Скачать
4 | 1
Фильмы 2018 [DVDrip, WEB-DLRip, HDrip] (DUB, MVO) [ 1.41 GB ] Маленькое красное платье / In Fabric [2018 BDRip] MVO Twi7ter Скачать
9 | 1
T Фильмы 2018 [DVDrip, WEB-DLRip, HDrip] (DUB, MVO) [ 1.46 GB ] Маленькое красное платье / In Fabric [2018 BDRip] MVO [HDRezka Studio] bober100 Скачать
1 | 0
Фильмы 2018 [DVDrip, WEB-DLRip, HDrip] (DUB, MVO) [ 2.36 GB ] Маленькое красное платье / In Fabric [2018 BDRip-AVC] 2xMVO [ HDRezka Studio] bober100 Скачать
1 | 0

28-11-2019 20:33  

Отключить всю рекламу на сайте

    Дорогой пользователь! Огромная просьба, поблагодарите релизера, оцените раздачу и оставьте свои комментарий, если Вы скачали Маленькое красное платье через торрент бесплатно! Внесите свою лепту в развитие PiratBit!
    Комментировать посты могут только пользователи прошедшие не сложную регистрацию
    Показать сообщения:    

    Маленькое красное платье через торрент
    Скачать бесплатно Маленькое красное платье
    Маленькое красное платье скачать торрент
    Маленькое красное платье смотреть онлайн
    Cкачать фильм Маленькое красное платье бесплатно
    Маленькое красное платье скачать торрент в хорошем качестве
    Маленькое красное платье смотреть онлайн бесплатно в хорошем качестве


    Вы не можете начинать темы
    Вы не можете отвечать на сообщения
    Вы не можете редактировать свои сообщения
    Вы не можете удалять свои сообщения
    Вы не можете голосовать в опросах
    Вы не можете прикреплять файлы к сообщениям
    Вы можете скачивать файлы