Ссылка на приватное зеркало нашего сайта всего за 1$. Внимание количество ограничено!!!

2 сезон

iTunes

1 сезон

1

iTunes

iTunes

iTunes

1 сезон

RePack

30

ИГРА 18+

pack

ВАЖНО

!!Акция!!

Alien_RageХит недели

RePack

MK11
pack

Забери бонус

RePack

jed

!!Акция!!

Alien_Rage

RePack

fifa19

RePack

Assassins Creed: Odyssey

RePack

NEED FOR SPEED™ PAYBACK

4 сезон

9 сезон

Бесстыжие 9 сезон

Все сериалы

все сериалы на PB.wtf

RePack

FAR CRY 5
  

Замок из песка / Сезон: 1 / Серии: 1-8 из 8 (Юрий Лейзеров) [2019, Мелодрама, WEBRip-AVC] pb.wtf

Замок из песка через торрент pb.wtf

Размер: 5.11 GB | Добавлен: 1 год 1 мес. назад | Торрент скачан:29 раз
Скачать  

17-09-2019 09:45 Замок из песка Скачать торрент  

Замок из песка
Год выпуска: 2019
Страна: Россия
Жанр: Мелодрама
Продолжительность: ~ 00:45:00
Субтитры: отсутствуют

Режиссер: Юрий Лейзеров



В ролях: Екатерина Олькина, Артём Карасёв, Кристина Кузьмина, Евгений Шириков, Максим Антипов, Борис Хвошнянский, Екатерина Носик, Оксана Базилевич, Валентина Нейморовец, Вячеслав Коробицин, Владимир Колганов, Алексей Митин, Аркадий Волгин, Эрнст Романов, Марина Старых, Елена Лопаткина, Дарья Перова, Алексей Красноцветов, Татьяна Захарова

Описание: Как выжить, если ничего не осталось? Возможно ли начать жизнь заново в чужом городе, где ты никому не нужен? Как найти в себе силы идти дальше и не дать обстоятельствам и собственным страхам сломить тебя? Жизнь Марины Романовой была похожа на сказку, о которой мечтает каждая женщина – любящий муж, маленький сын, загородный дом и успешный бизнес.Но на дворе конец 90-х, и непростое время вносит свои коррективы. Прекрасная жизнь Марины исчезает в один момент подобно тому, как набегающая волна смывает чудесный замок из песка…

Качество: WEBRip-AVC
Формат: MKV

Видео: 1024x576, (16:9), 25 fps, AVC MPEG-4 (x264), High@L4.1 ~ 1600 kbps , 0.109 bit/pixel
Аудио: 48 kHz, АС3, 2/0 (L,R), ~192.00 kbps avg
скриншот  скриншот  скриншот  скриншот  

Общее
Уникальный идентификатор : 179532201478290750378665046917244508340 (0x8710A4EF977E1FA1A4F7646B01BBD8B4)
Полное имя : C:\Замок из песка.(2019).WEBRip.(AVC).Files-x\01.Замок из песка.(2019).WEBRip.(AVC).by.Серый1779.Files-x.mkv
Формат : Matroska
Версия формата : Version 2
Размер файла : 681 Мбайт
Продолжительность : 53 м. 5 с.
Общий поток : 1793 Кбит/сек
Дата кодирования : UTC 2019-09-16 21:12:19
Программа кодирования : mkvmerge v7.8.0 (''River Man'') 32bit built on Apr 3 2015 12:11:22
Библиотека кодирования : libebml v1.3.1 + libmatroska v1.4.2

Видео
Идентификатор : 1
Формат : AVC
Формат/Информация : Advanced Video Codec
Профиль формата : High@L4.1
Настройки формата : CABAC / 9 Ref Frames
Параметр CABAC формата : Да
Параметр RefFrames формата : 9 кадров
Идентификатор кодека : V_MPEG4/ISO/AVC
Продолжительность : 53 м. 5 с.
Битрейт : 1600 Кбит/сек
Ширина : 1024 пикселя
Высота : 576 пикселей
Соотношение сторон : 16:9
Режим частоты кадров : Постоянный
Частота кадров : 25,000 кадров/сек
Цветовое пространство : YUV
Субдискретизация насыщенности : 4:2:0
Битовая глубина : 8 бит
Тип развёртки : Прогрессивная
Бит/(Пиксели*Кадры) : 0.109
Размер потока : 595 Мбайт (87%)
Библиотека кодирования : x264 core 146 r2538 121396c
Настройки программы : cabac=1 / ref=9 / deblock=1:-2:-1 / analyse=0x3:0x133 / me=umh / subme=9 / psy=1 / psy_rd=1.00:0.15 / mixed_ref=1 / me_range=32 / chroma_me=1 / trellis=2 / 8x8dct=1 / cqm=0 / deadzone=21,11 / fast_pskip=0 / chroma_qp_offset=-3 / threads=18 / lookahead_threads=3 / sliced_threads=0 / nr=0 / decimate=1 / interlaced=0 / bluray_compat=0 / constrained_intra=0 / bframes=9 / b_pyramid=2 / b_adapt=2 / b_bias=0 / direct=1 / weightb=1 / open_gop=0 / weightp=2 / keyint=250 / keyint_min=25 / scenecut=40 / intra_refresh=0 / rc=2pass / mbtree=0 / bitrate=1600 / ratetol=1.0 / qcomp=0.60 / qpmin=0 / qpmax=69 / qpstep=4 / cplxblur=20.0 / qblur=0.5 / ip_ratio=1.40 / pb_ratio=1.30 / aq=2:1.00
Default : Да
Forced : Нет
Цветовой диапазон : Limited
Основные цвета : BT.709
Характеристики трансфера : BT.709
Коэффициенты матрицы : BT.709

Аудио
Идентификатор : 2
Формат : AC-3
Формат/Информация : Audio Coding 3
Коммерческое название : Dolby Digital
Идентификатор кодека : A_AC3
Продолжительность : 53 м. 5 с.
Вид битрейта : Постоянный
Битрейт : 192 Кбит/сек
Каналы : 2 канала
ChannelLayout : L R
Частота : 48,0 КГц
Частота кадров : 31,250 кадров/сек (1536 SPF)
Метод сжатия : С потерями
Размер потока : 72,9 Мбайт (11%)
ServiceKind/String : Complete Main
Default : Да
Forced : Нет

Внимание! Раздача ведётся путём добавления новых серий. При каждом добавлении создаётся новый торрент.
Чтобы начать докачку новой серии, пользователям необходимо сделать следующее:
1. Остановить скачивание.
2. Удалить старый торрент у себя из клиента (старые серии удалять не надо).
3. Скачать новый торрент и запустить его у себя в клиенте вместо старого, при этом указать клиенту путь в старую папку куда и должно происходить скачивание новых серий. Ваш клиент при этом должен произвести хеширование (проверку) старой папки и будет докачивать только те серии, которых у вас ещё нет. Старые серии при этом не удаляются, а продолжают раздаваться! Eсли вы уже удалили старые серии, то предотвратить повторную закачку старых серий можно, отжав галочку в соответствующих местах при запуске нового торрента.
pb.wtf



Скачать Замок из песка через торрент https://i86.fastpic.ru/big/2019/0916/8b/d25ccbcd238dedbc623f2058e9063d8b.jpg Скачать фильм Замок из песка через торрент бесплантно в хорошем качестве Описание: Как выжить, если ничего не осталось? Возможно ли начать жизнь заново в чужом городе, где ты никому не нужен? Как найти в себе ... 10 10 3
Торрент: Зарегистрирован [2019-09-21 03:50] · скачан: 29 раз
Статус: √ проверено
Размер: 5.11 GB
Как cкачать? Как скачать Замок из песка через торрент | qTorrent

% Раздел Тема Автор DL S | L
Наши сериалы [ 19.07 GB ] Замок из песка / Сезон: 1 / Серии: 1-8 из 8 [2019 Мело HDTV 1080p] bober100 Скачать
1 | 0
Наши сериалы [ 11.82 GB ] Замок из песка / Сезон: 1 / Серии: 1-8 из 8 [2019 Мело HDTVRip 720p] bober100 Скачать
1 | 0
Наши сериалы [ 5.14 GB ] Замок из песка / Сезон: 1 / Серии: 1-8 из 8 [2019 Мело WEB-DLRip] bober100 Скачать
1 | 0

28-11-2019 20:33  

Отключить всю рекламу на сайте

    Дорогой пользователь! Огромная просьба, поблагодарите релизера, оцените раздачу и оставьте свои комментарий, если Вы скачали Замок из песка через торрент бесплатно! Внесите свою лепту в развитие PiratBit!
    Комментировать посты могут только пользователи прошедшие не сложную регистрацию
    Показать сообщения:    

    Замок из песка через торрент
    Скачать бесплатно Замок из песка
    Замок из песка скачать торрент
    Замок из песка смотреть онлайн
    Cкачать фильм Замок из песка бесплатно
    Замок из песка скачать торрент в хорошем качестве
    Замок из песка смотреть онлайн бесплатно в хорошем качестве


    Вы не можете начинать темы
    Вы не можете отвечать на сообщения
    Вы не можете редактировать свои сообщения
    Вы не можете удалять свои сообщения
    Вы не можете голосовать в опросах
    Вы не можете прикреплять файлы к сообщениям
    Вы можете скачивать файлы