Ссылка на приватное зеркало нашего сайта всего за 1$. Внимание количество ограничено!!!

2 сезон

iTunes

1 сезон

1

iTunes

iTunes

iTunes

1 сезон

RePack

30

ИГРА 18+

pack

ВАЖНО

!!Акция!!

Alien_RageХит недели

RePack

MK11
pack

Забери бонус

RePack

jed

!!Акция!!

Alien_Rage

RePack

fifa19

RePack

Assassins Creed: Odyssey

RePack

NEED FOR SPEED™ PAYBACK

4 сезон

9 сезон

Бесстыжие 9 сезон

Все сериалы

все сериалы на PB.wtf

RePack

FAR CRY 5
  

Куба / Сезон: 2 / Серии: 1-20 из 20 (Дмитрий Коробкин) [2019, Детектив, SATRip] pb.wtf

Куба через торрент pb.wtf

Размер: 13.3 GB | Добавлен: 1 год назад | Торрент скачан:81 раз
Скачать  

17-09-2019 13:52 Куба Скачать торрент  

Куба
Год выпуска: 2019
Страна: Россия
Жанр: Детектив
Продолжительность: ~ 00:48:00
Перевод: Не требуется
Субтитры: отсутствуют

Режиссер: Дмитрий Коробкин



В ролях: Алексей Макаров, Екатерина Никитина, Митя Лабуш, Константин Житинев, Александр Лыков, Владимир Стеклов, Елена Сафонова, Мария Голубкина, Константин Быков, Евгений Зеленский, Татьяна Яхина, Вячеслав Бондарчук, Александр Сергеев, Алена Левкович, Александр Рискин, Юрий Скулябин, Виктория Богатырёва, Юрий Архангельский, Юля Арутюнова, Михаил Шульц

Описание: Майор Кубанков по прозвищу Куба сразу после повышения в столице вынужден вернуться в Среднереченск, поскольку всплывают новые детали в расследовании загадочной гибели его возлюбленной – Эрики Одинцовой. Докопаться до сути этого дела Кубе всячески помогают сотрудники местного РОВД. Однако, на отдел ещё выпадают самые запутанные преступления в городе: начиная поиском пропавших людей и заканчивая кражей ценнейших икон.

Качество: SATRip
Формат: AVI

Видео: XviD, ~ 1800 Кбит/с, 720x400
Аудио: МР3, 2 ch, 128 Кбит/с
скриншот  скриншот  скриншот  скриншот  скриншот  

Общее
Полное имя : C:\Kuba.2019.S02\Kuba.2.01.SATRip.avi
Формат : AVI
Формат/Информация : Audio Video Interleave
Размер файла : 661 Мбайт
Продолжительность : 47 м. 40 с.
Общий поток : 1938 Кбит/сек
Программа кодирования : VirtualDubMod 1.5.10.3 | www.virtualdub-fr.org || (build 2550/release)
Библиотека кодирования : VirtualDubMod build 2550/release

Видео
Идентификатор : 0
Формат : MPEG-4 Visual
Профиль формата : Advanced Simple@L5
Настройки формата : BVOP2
Параметр BVOP формата : 2
Параметр QPel формата : Нет
Параметр GMC формата : Без точки перехода
Параметр матрицы формата : Default (H.263)
Идентификатор кодека : XVID
Идентификатор кодека/Подсказка : XviD
Продолжительность : 47 м. 40 с.
Продолжительность оригинала : 44 м. 4 с.
Битрейт : 1804 Кбит/сек
Ширина : 720 пикселей
Высота : 400 пикселей
Соотношение сторон : 16:9
Частота кадров : 25,000 кадров/сек
Цветовое пространство : YUV
Субдискретизация насыщенности : 4:2:0
Битовая глубина : 8 бит
Тип развёртки : Прогрессивная
Метод сжатия : С потерями
Бит/(Пиксели*Кадры) : 0.251
Размер потока : 569 Мбайт (86%)
Библиотека кодирования : XviD 1.2.1 (UTC 2008-12-04)

Аудио
Идентификатор : 1
Формат : MPEG Audio
Версия формата : Version 1
Профиль формата : Layer 3
Настройки формата : Joint stereo / MS Stereo
Идентификатор кодека : 55
Идентификатор кодека/Подсказка : MP3
Продолжительность : 47 м. 40 с.
Продолжительность оригинала : 44 м. 4 с.
Вид битрейта : Постоянный
Битрейт : 128 Кбит/сек
Каналы : 2 канала
Частота : 48,0 КГц
Частота кадров : 41,667 кадра/сек (1152 SPF)
Метод сжатия : С потерями
Размер потока : 40,4 Мбайт (6%)
Выравнивание : Соединение по промежуткам
Продолжительность промежутка : 40 мс. (1,00 видеокадр)
Время предзагрузки промежутка : 504 мс.
Библиотека кодирования : LAME3.99r
Настройки программы : -m j -V 4 -q 9 -lowpass 17 -b 128

Внимание! Раздача ведётся путём добавления новых серий; при каждом добавлении создаётся новый торрент.
Чтобы начать докачку новой серии, пользователям необходимо сделать следующее:
1. Остановить скачивание;
2. Удалить старый торрент у себя из клиента (старые серии удалять не надо);
3. Скачать новый торрент и запустить его у себя в клиенте вместо старого, при этом указать клиенту путь в старую папку куда и должно происходить скачивание новых серий. Ваш клиент при этом должен произвести хеширование (проверку) старой папки и будет докачивать только те серии, которых у вас ещё нет. Старые серии при этом не удаляются, а продолжают раздаваться! Eсли вы уже удалили старые серии, то предотвратить повторную закачку старых серий можно, отжав галочку в соответствующих местах при запуске нового торрента.
pb.wtf



Скачать Куба через торрент https://i87.fastpic.ru/big/2019/0916/b3/b696e50d56d7e6bce10957d8e1db0bb3.jpg Скачать фильм Куба через торрент бесплантно в хорошем качестве Описание: Майор Кубанков по прозвищу Куба сразу после повышения в столице вынужден вернуться в Среднереченск, поскольку всплывают новые ... 10 10 9
Торрент: Зарегистрирован [2019-09-27 19:53] · скачан: 81 раз
Статус: √ проверено
Размер: 13.3 GB
Как cкачать? Как скачать Куба через торрент | qTorrent

% Раздел Тема Автор DL S | L
Зарубежные сериалы [ 30.15 GB ] Пацаны / The Boys / Сезон: 2 / Серии: 1-8 из 8 [2020 WEB-DL 1080p] DVO [Кубик в Кубе] bober100 Скачать
6 | 12
Зарубежные сериалы [ 13.54 GB ] Пацаны / The Boys / Сезон: 2 / Серии: 1-8 из 8 [2020 WEB-DLRip-AVC] [DVO] killermax2013 Скачать
6 | 2
Зарубежные сериалы [ 9.22 GB ] Пацаны / The Boys / Сезон: 2 / Серии: 1-8 из 8 [2020 WEB-DLRip] DVO [Кубик в Кубе] GEKADOL Скачать
31 | 15
Зарубежные сериалы [ 39.3 GB ] Пацаны / The Boys / Сезон: 2 / Серии: 1-8 из 8 [2020 WEBRip 1080p] 4xMVO+DVO [Кубик в Кубе] bober100 Скачать
5 | 3
Зарубежные сериалы [ 3.14 GB ] #трудовыебудни / Adult Material / Сезон: 1 / Серии: 1-2 из 4 [2020 WEBRip 1080p] [DVO] killermax2013 Скачать
8 | 0
Зарубежные сериалы [ 10.49 GB ] Фарго / Fargo / Сезон: 2 / Серии: 1-10 из 10 [2015 BDRip] [DVO] killermax2013 Скачать
3 | 0
Зарубежные сериалы [ 11.51 GB ] Дрянь / Fleabag / Сезоны: 1-2 / Серии: 1-12 из 12 [2016-2019 WEBRip 1080p] [DVO] killermax2013 Скачать
6 | 0


Последний раз редактировалось: bober100 (2019-09-27 19:53), всего редактировалось 3 раз(а)

28-11-2019 20:33  

Отключить всю рекламу на сайте

24-09-2019 15:09 Куба Скачать торрент  

Дайте скорости!pb.wtf



    Дорогой пользователь! Огромная просьба, поблагодарите релизера, оцените раздачу и оставьте свои комментарий, если Вы скачали Куба через торрент бесплатно! Внесите свою лепту в развитие PiratBit!
    Комментировать посты могут только пользователи прошедшие не сложную регистрацию
    Показать сообщения:    

    Куба через торрент
    Скачать бесплатно Куба
    Куба скачать торрент
    Куба смотреть онлайн
    Cкачать фильм Куба бесплатно
    Куба скачать торрент в хорошем качестве
    Куба смотреть онлайн бесплатно в хорошем качестве


    Вы не можете начинать темы
    Вы не можете отвечать на сообщения
    Вы не можете редактировать свои сообщения
    Вы не можете удалять свои сообщения
    Вы не можете голосовать в опросах
    Вы не можете прикреплять файлы к сообщениям
    Вы можете скачивать файлы