Ссылка на приватное зеркало нашего сайта всего за 1$. Внимание количество ограничено!!!

2 сезон

iTunes

1 сезон

1

2 сезон

2 сезон

iTunes

1 сезон

RePack

30

Ultimate

ВАЖНО

ИГРА 18+

pack

RePack

MK11
pack

Забери бонус

RePack

jed

!!Акция!!

Alien_Rage

RePack

fifa19

RePack

Assassins Creed: Odyssey

RePack

NEED FOR SPEED™ PAYBACK

4 сезон

9 сезон

Бесстыжие 9 сезон

Все сериалы

все сериалы на PB.wtf

RePack

FAR CRY 5
  

Наследие: Застывшая кровь / Хладнокровный / Cold Blood Legacy (Фридерик Петижан) [2019, Боевик, триллер, BD Remux 1080p] DUB [iTunes] +MVO [HDrezka Studio] pb.wtf

Наследие: Застывшая кровь через торрент pb.wtf

Размер: 16.04 GB | Добавлен: 1 год 2 мес. назад | Торрент скачан:74 раза
Скачать  

17-09-2019 17:26 Наследие: Застывшая кровь Скачать торрент  

Наследие: Застывшая кровь / Хладнокровный
Cold Blood Legacy
«You can't outrun the past»
Год выпуска: 2019
Страна: Франция, Украина
Жанр: Боевик, триллер
Продолжительность: 01:31:22
Перевод:

#1: Дублированный | iTunes
#2: Профессиональный (многоголосый) | HDRezka Studio

Субтитры: Английские

Режиссер: Фридерик Петижан

rating

В ролях: Жан Рено, Сара Линд, Джо Андерсон, Дэвид Гяси, Игорь Цишкевич, Франсуа Гетари, Саманта Бонд, Катерина Бурсикова, Анна Буткевич, Роберт Фельдман

Описание: Генри, один из наиболее разыскиваемых киллеров в отставке, живёт отшельником на берегу озера в труднодоступной лесной чаще. Однажды недалеко от его дома происходит несчастный случай: на мотосанях разбивается девушка. Перед Генри встаёт дилемма: спасти девушку, подвергнув себя риску быть обнаруженным или поступить так, как подсказывает здравый смысл и многолетний опыт.

Качество: BD Remux 1080p
Формат: MKV

Видео: MPEG-4 AVC, 1920x1080, 21.8 Mbit/s, 23.976 fps
Аудио#1: 48 kHz, AC3, 5.1, 384 Kbps | iTunes | RUS |
Аудио#2: 48 kHz, AC3, 2.0, 192 Kbps | HDRezka Studio | RUS |
Аудио#3: 48 kHz, DTS-HD MA, 5.1, 2781 Kbps | Оригинал | ENG |
скриншот  скриншот  скриншот  скриншот  скриншот  

General
Unique ID : 316708742126498455485244355721206352386 (0xEE43E29015C7DF83277D95E18A2ACA02)
Complete name : D:Video111Cold.Blood.Legacy.2019.BDREMUX.1080p.seleZen.mkv
Format : Matroska
Format version : Version 4
File size : 16.0 GiB
Duration : 1 h 31 min
Overall bit rate mode : Variable
Overall bit rate : 25.1 Mb/s
Movie name : Cold Blood 2019 from селезень
Encoded date : UTC 2019-09-16 08:29:34
Writing application : mkvmerge v22.0.0 ('At The End Of The World') 64-bit
Writing library : libebml v1.3.5 + libmatroska v1.4.8

Video
ID : 1
Format : AVC
Format/Info : Advanced Video Codec
Format profile : High@L4.1
Format settings : CABAC / 3 Ref Frames
Format settings, CABAC : Yes
Format settings, Reference : 3 frames
Format settings, GOP : M=3, N=12
Codec ID : V_MPEG4/ISO/AVC
Duration : 1 h 31 min
Bit rate mode : Variable
Bit rate : 21.8 Mb/s
Maximum bit rate : 32.0 Mb/s
Width : 1 920 pixels
Height : 1 080 pixels
Display aspect ratio : 16:9
Frame rate mode : Constant
Frame rate : 23.976 (24000/1001) FPS
Standard : NTSC
Color space : YUV
Chroma subsampling : 4:2:0
Bit depth : 8 bits
Scan type : Progressive
Bits/(Pixel*Frame) : 0.438
Stream size : 13.9 GiB (87%)
Language : English
Default : Yes
Forced : No
Color range : Limited
Color primaries : BT.709
Transfer characteristics : BT.709
Matrix coefficients : BT.709

Audio #1
ID : 2
Format : AC-3
Format/Info : Audio Coding 3
Commercial name : Dolby Digital
Codec ID : A_AC3
Duration : 1 h 31 min
Bit rate mode : Constant
Bit rate : 384 kb/s
Channel(s) : 6 channels
Channel layout : L R C LFE Ls Rs
Sampling rate : 48.0 kHz
Frame rate : 31.250 FPS (1536 SPF)
Bit depth : 16 bits
Compression mode : Lossy
Stream size : 251 MiB (2%)
Title : Dub [iTunes]
Language : Russian
Service kind : Complete Main
Default : Yes
Forced : Yes

Audio #2
ID : 3
Format : AC-3
Format/Info : Audio Coding 3
Commercial name : Dolby Digital
Codec ID : A_AC3
Duration : 1 h 31 min
Bit rate mode : Constant
Bit rate : 192 kb/s
Channel(s) : 2 channels
Channel layout : L R
Sampling rate : 48.0 kHz
Frame rate : 31.250 FPS (1536 SPF)
Bit depth : 16 bits
Compression mode : Lossy
Stream size : 125 MiB (1%)
Title : MVO [HDRezka Studio]
Language : Russian
Service kind : Complete Main
Default : No
Forced : No

Audio #3
ID : 4
Format : DTS XLL
Format/Info : Digital Theater Systems
Commercial name : DTS-HD Master Audio
Codec ID : A_DTS
Duration : 1 h 31 min
Bit rate mode : Variable
Bit rate : 2 781 kb/s
Channel(s) : 6 channels
Channel layout : C L R Ls Rs LFE
Sampling rate : 48.0 kHz
Frame rate : 93.750 FPS (512 SPF)
Bit depth : 24 bits
Compression mode : Lossless
Stream size : 1.77 GiB (11%)
Title : Original
Language : English
Default : No
Forced : No

Text
ID : 5
Format : UTF-8
Codec ID : S_TEXT/UTF8
Codec ID/Info : UTF-8 Plain Text
Duration : 1 h 18 min
Bit rate : 36 b/s
Count of elements : 753
Stream size : 21.0 KiB (0%)
Title : Full
Language : English
Default : No
Forced : No

Menu
00:00:00.000 : en:00:00:00.000
00:07:52.472 : en:00:07:52.472
00:16:37.455 : en:00:16:37.455
00:24:23.253 : en:00:24:23.253
00:29:15.128 : en:00:29:15.128
00:40:00.106 : en:00:40:00.106
00:47:09.660 : en:00:47:09.660
00:56:05.404 : en:00:56:05.404
01:06:56.262 : en:01:06:56.262
01:11:38.544 : en:01:11:38.544
01:18:31.707 : en:01:18:31.707
01:25:20.115 : en:01:25:20.115

pb.wtf



Скачать Наследие: Застывшая кровь через торрент https://c.radikal.ru/c37/1909/a2/f8a33a575b96.jpg Скачать фильм Наследие: Застывшая кровь через торрент бесплантно в хорошем качестве Описание: Генри, один из наиболее разыскиваемых киллеров в отставке, живёт отшельником на берегу озера в труднодоступной лесной чаще. ... 10 10 6
Info! Золотая раздача, скачанное не засчитывается.
Торрент: Зарегистрирован [2019-09-17 17:26] · скачан: 74 раз
Статус: √ проверено
Размер: 16.04 GB
Как cкачать? Как скачать Наследие: Застывшая кровь через торрент | qTorrent

% Раздел Тема Автор DL S | L
Фильмы 2019-2020 [DVDrip, WEB-DLRip, HDrip] (DUB, MVO) [ 1.46 GB ] Наследие: Застывшая кровь / Хладнокровный / Cold Blood Legacy [2019 BDRip] - [] Twi7ter Скачать
9 | 0
Фильмы [HD 720p, 1080p] (Хороший звук DUB, MVO) [ 4.35 GB ] Наследие: Застывшая кровь / Хладнокровный / Cold Blood Legacy [2019 BDRip 720p] DUB [] +MVO [HDrezka Studio] bober100 Скачать
1 | 0
Фильмы 2019-2020 [DVDrip, WEB-DLRip, HDrip] (DUB, MVO) [ 1.46 GB ] Наследие: Застывшая кровь / Хладнокровный / Cold Blood Legacy [2019 BDRip] DUB [ BD EUR] bober100 Скачать
1 | 0
Фильмы [HD 720p, 1080p] (Хороший звук DUB, MVO) [ 7.68 GB ] Наследие: Застывшая кровь / Хладнокровный / Cold Blood Legacy [2019 BDRip 1080p] DUB [] +MVO [HDrezka Studio] bober100 Скачать
1 | 0

28-11-2019 20:33  

Отключить всю рекламу на сайте

    Дорогой пользователь! Огромная просьба, поблагодарите релизера, оцените раздачу и оставьте свои комментарий, если Вы скачали Наследие: Застывшая кровь через торрент бесплатно! Внесите свою лепту в развитие PiratBit!
    Комментировать посты могут только пользователи прошедшие не сложную регистрацию
    Показать сообщения:    

    Наследие: Застывшая кровь через торрент
    Скачать бесплатно Наследие: Застывшая кровь
    Наследие: Застывшая кровь скачать торрент
    Наследие: Застывшая кровь смотреть онлайн
    Cкачать фильм Наследие: Застывшая кровь бесплатно
    Наследие: Застывшая кровь скачать торрент в хорошем качестве
    Наследие: Застывшая кровь смотреть онлайн бесплатно в хорошем качестве


    Вы не можете начинать темы
    Вы не можете отвечать на сообщения
    Вы не можете редактировать свои сообщения
    Вы не можете удалять свои сообщения
    Вы не можете голосовать в опросах
    Вы не можете прикреплять файлы к сообщениям
    Вы можете скачивать файлы