новый адрес пиратбит piratbit
Мега распродажа FORZA HORIZON 4 ULTIMATE+ВСЕ DLC+ОНЛАЙН всего за 499р. 349 руб. (супер цена). Внимание количество ограничено!!!

iTunes

1+1

iTunes

мы

iTunes

1

iTunes

Чернобыль

iTunes

Ральф против интернета

Лицензия

ПШазам

Лицензия

Игра престолов

Лицензия

30
pack

ВАЖНО

!!Акция!!

Alien_RageХит недели

RePack

Resident Evil 21

ИГРА 18+

pack

RePack

Metro:Exodus

!!Акция!!

Alien_Rage

RePack

fifa19

RePack

Assassins Creed: Odyssey

RePack

NEED FOR SPEED™ PAYBACK

3 сезон

9 сезон

Бесстыжие 9 сезон

Все сериалы

все сериалы на PB.wtf

RePack

FAR CRY 5
Ребята, катастрофически не хватает 1900р. для оплаты серверов за Октябрь (всвязи с блокировками трафик упал в 3 раза), 1-2р., выручайте.
  

Пенниуорт / Pennyworth / Сезон: 1 / Серии: 1-10 из 10 (Роб Бэйли, Билл Иглз, Дэнни Кэннон) [2019, боевик, драма, криминал, WEB-DL 1080p] [MVO] (HDrezka Studio) pb.wtf

Пенниуорт через торрент pb.wtf

Размер: 31.19 GB | Добавлен: 1 мес. 13 д. назад | Торрент скачан:9 раз
Скачать  

17-09-2019 19:39 Пенниуорт Скачать торрент  



Пенниуорт / Pennyworth



Год выпуска: 2019
Страна: США
Жанр: Боевик, драма, криминал
Продолжительность: 01:11:00

Перевод: Профессиональный (многоголосый закадровый) HDrezka Studio

Режиссёр: Роб Бэйли, Билл Иглз, Дэнни Кэннон

В ролях: Джек Бэннон, Палома Фэйт, Бен Элдридж, Джейсон Флеминг, Хэйнсли Ллойд Беннетт, Дороти Эткинсон, Эмма Коррин, Райан Флетчер, Иан Палстон-Дэвис, Ники Виккери

Описание: Альфред Пенниуорт — отставной офицер британского спецназа, который создаёт в Лондоне собственное охранное предприятие. Одним из его первых клиентов становится миллионер Томас Уэйн, отец будущего Бэтмена.


Качество: WEB-DL 1080p | Pennyworth.S01.1080p.AMZN.WEB-DL.DDP5.1.H.264-NTG
Контейнер: MKV
Видео: AVC, 1920x1080p (1.78:1), 23.976 fps, ~6000 kbps, ~0.119 bit/pixel
Аудио №1: Русский AC3 5.1, 48 kHz, 640 kbps
Аудио №2: Английский E-AC3 5.1, 48 kHz, 640 kbps
Субтитры: Русские (Forced), английские (Full, SDH)
Реклама: отсутствует
Работа со звуком zgurvas@eniahd
01 Пилот | Pilot
02 Хозяйская дочка | The Landlord's Daughter
03 Марта Кейн | Martha Kane
04 Леди Пенелопа | Lady Penelope
05 Ширли Бэсси | Shirley Bassey
06 Силла Блэк | Cilla Black
07 Джули Кристи | Julie Christie
08 Сэнди Шоу | Sandie Shaw

Анонс:

09 Альма Коган | Alma Cogan (22.09.2019)
10 Марианна Фейтфулл | Marianne Faithfull (29.09.2019)
Общее
Уникальный идентификатор : 323047334559739808919233993626806132438 (0xF308A74C520C712768350E0729781ED6)
Полное имя : F:\RELEASE\Pennyworth.S01.1080p.WEB-DL.Rus.Eng.EniaHD\Pennyworth.S01E01.Pilot.1080p.WEB-DL.Rus.Eng.EniaHD.mkv
Формат : Matroska
Версия формата : Version 4
Размер файла : 3,62 Гбайт
Продолжительность : 1 ч. 11 м.
Общий поток : 7221 Кбит/сек
Название фильма : Пилот
Дата кодирования : UTC 2019-08-07 11:26:59
Программа кодирования : mkvmerge v34.0.0 ('Sight and Seen') 64-bit
Библиотека кодирования : libebml v1.3.7 + libmatroska v1.5.0
Обложка : Yes
Attachments : cover.pennyworth.jpg

Видео
Идентификатор : 1
Формат : AVC
Формат/Информация : Advanced Video Codec
Профиль формата : High@L4
Настройки формата : CABAC / 4 Ref Frames
Параметр CABAC формата : Да
Параметр RefFrames формата : 4 кадра
Идентификатор кодека : V_MPEG4/ISO/AVC
Продолжительность : 1 ч. 11 м.
Вид битрейта : Постоянный
Битрейт : 5937 Кбит/сек
Номинальный битрейт : 10000 Кбит/сек
Ширина : 1920 пикселей
Высота : 1080 пикселей
Соотношение сторон : 16:9
Режим частоты кадров : Постоянный
Частота кадров : 23,976 (24000/1001) кадра/сек
Цветовое пространство : YUV
Субдискретизация насыщенности : 4:2:0
Битовая глубина : 8 бит
Тип развёртки : Прогрессивная
Бит/(Пиксели*Кадры) : 0.119
Размер потока : 2,97 Гбайт (82%)
Заголовок : Pennyworth.S01E01.Pilot.1080p.WEB-DL.Rus.Eng.EniaHD
Язык : English
Default : Да
Forced : Нет
Цветовой диапазон : Limited
Основные цвета : BT.709
Характеристики трансфера : BT.709
Коэффициенты матрицы : BT.709

Аудио #1
Идентификатор : 2
Формат : AC-3
Формат/Информация : Audio Coding 3
Коммерческое название : Dolby Digital
Идентификатор кодека : A_AC3
Продолжительность : 1 ч. 11 м.
Вид битрейта : Постоянный
Битрейт : 640 Кбит/сек
Каналы : 6 каналов
ChannelLayout : L R C LFE Ls Rs
Частота : 48,0 КГц
Частота кадров : 31,250 кадров/сек (1536 SPF)
Битовая глубина : 16 бит
Метод сжатия : С потерями
Размер потока : 328 Мбайт (9%)
Заголовок : AC3 5.1 @ 640 kbps - MVO, HDrezka Studio
Язык : Russian
ServiceKind/String : Complete Main
Default : Да
Forced : Нет

Аудио #2
Идентификатор : 3
Формат : E-AC-3
Формат/Информация : Enhanced AC-3
Коммерческое название : Dolby Digital Plus
Идентификатор кодека : A_EAC3
Продолжительность : 1 ч. 11 м.
Вид битрейта : Постоянный
Битрейт : 640 Кбит/сек
Каналы : 6 каналов
ChannelLayout : L R C LFE Ls Rs
Частота : 48,0 КГц
Частота кадров : 31,250 кадров/сек (1536 SPF)
Метод сжатия : С потерями
Размер потока : 328 Мбайт (9%)
Заголовок : E-AC3 5.1 640 kbps - Original
Язык : English
ServiceKind/String : Complete Main
Default : Нет
Forced : Нет

Текст #1
Идентификатор : 4
Формат : UTF-8
Идентификатор кодека : S_TEXT/UTF8
Идентификатор кодека/Информация : UTF-8 Plain Text
Продолжительность : 34 м. 17 с.
Битрейт : 1 бит/сек
ElementCount : 9
Размер потока : 408 байт (0%)
Заголовок : Forced
Язык : Russian
Default : Да
Forced : Да

Текст #2
Идентификатор : 5
Формат : UTF-8
Идентификатор кодека : S_TEXT/UTF8
Идентификатор кодека/Информация : UTF-8 Plain Text
Продолжительность : 1 ч. 10 м.
Битрейт : 58 бит/сек
ElementCount : 1102
Размер потока : 30,2 Кбайт (0%)
Заголовок : Full
Язык : English
Default : Нет
Forced : Нет

Текст #3
Идентификатор : 6
Формат : UTF-8
Идентификатор кодека : S_TEXT/UTF8
Идентификатор кодека/Информация : UTF-8 Plain Text
Продолжительность : 1 ч. 10 м.
Битрейт : 62 бит/сек
ElementCount : 1208
Размер потока : 32,1 Кбайт (0%)
Заголовок : Full SDH
Язык : English
Default : Нет
Forced : Нет
скриншот  скриншот  скриншот  
Когда раздача ведётся путём добавления новых серий, при каждом добавлении создётся новый торрент. Чтобы начать докачку новой серии, пользователям необходимо сделать следующее:
(1) остановить скачивание,
(2) удалить старый торрент у себя из клиента (старые серии удалять не надо),
(3) скачать новый торрент и запустить его у себя в клиенте вместо старого, при этом указать клиенту путь в старую папку, куда и должно происходить скачивание новых серий.
Ваш клиент при этом должен произвести хеширование (проверку) старой папки (если не производит сам - помогите ему сделать это), и будет докачивать только те серии, которых у вас ещё нет.Старые серии при этом не удаляются, а продолжают раздаваться!
Eсли вы уже удалили старые серии, то предотвратить повторную закачку старых серий можно, отжав галочку в соответсвующих местах при запуске нового торрента. По возможности, желательно не удалять старые серии как можно дольше, чтобы релизёр не столько продолжал раздавать старые серии, а смог сконцентрироваться на новых.
pb.wtf



Скачать Пенниуорт через торрент http://img15.lostpic.net/2019/07/30/2c69c1702adf569ba2f90abe88e84f1b.jpg Скачать фильм Пенниуорт через торрент бесплантно в хорошем качестве Описание: Альфред Пенниуорт — отставной офицер британского спецназа, который создаёт в Лондоне собственное охранное предприятие. Одним из ... 10 10 3
Торрент: Зарегистрирован [2019-09-30 18:51] · скачан: 9 раз
Статус: √ проверено
Размер: 31.19 GB
Как cкачать? Как скачать Пенниуорт через торрент | qTorrent

% Раздел Тема Автор DL S | L
Зарубежные сериалы [ 31.19 GB ] Пенниуорт / Pennyworth / Сезон: 1 / Серии: 1-10 из 10 [2019 WEB-DL 1080p] MVO [Lostfilm] bober100 Скачать
2 | 0
Зарубежные сериалы [ 17.45 GB ] Пенниуорт / Pennyworth / Сезон: 1 / Серии: 1-10 из 10 [2019 WEB-DL 720p] DUB [Lucky Production] +MVO [Lostfilm] bober100 Скачать
2 | 0
Зарубежные сериалы [ 6.04 GB ] Пенниуорт / Pennyworth / Сезон: 1 / Серии: 1-10 из 10 [2019 WEBRip-AVC] [DVO] killermax2013 Скачать
1 | 0
Зарубежные сериалы [ 15.25 GB ] Пенниуорт / Pennyworth / Сезон: 1 / Серии: 1-10 из 10 [2019 WEB-DL 720p] [MVO] killermax2013 Скачать
3 | 0
Зарубежные сериалы [ 30.18 GB ] Пенниуорт / Pennyworth / Сезон: 1 / Серии: 1-10 из 10 [2019 WEB-DL 1080p] [MVO] killermax2013 Скачать
1 | 0
Зарубежные сериалы [ 7.85 GB ] Пенниуорт / Pennyworth / Сезон: 1 / Серии: 1-10 из 10 [2019 WEB-DLRip] killermax2013 Скачать
3 | 0
Зарубежные сериалы [ 29.88 GB ] Пенниуорт / Pennyworth / Сезон: 1 / Серии: 1-10 из 10 [2019 WEB-DL 1080p] killermax2013 Скачать
1 | 0


>> Регистрируемся здесь <<






Отзывы и комментарии о схеме читаем и пишем здесь: ---> Отзывы и комментарии о схеме

Новые благодарочки в телеграм довольных пользователей:
скриншот   скриншот   скриншот   скриншот   скриншот
    Дорогой пользователь! Огромная просьба, поблагодарите релизера, оцените раздачу и оставьте свои комментарий, если Вы скачали Пенниуорт через торрент бесплатно! Внесите свою лепту в развитие PiratBit!
    Комментировать посты могут только пользователи прошедшие не сложную регистрацию
    Показать сообщения:    

    Пенниуорт через торрент
    Скачать бесплатно Пенниуорт
    Пенниуорт скачать торрент
    Пенниуорт смотреть онлайн
    Cкачать фильм Пенниуорт бесплатно
    Пенниуорт скачать торрент в хорошем качестве
    Пенниуорт смотреть онлайн бесплатно в хорошем качестве


    Вы не можете начинать темы
    Вы не можете отвечать на сообщения
    Вы не можете редактировать свои сообщения
    Вы не можете удалять свои сообщения
    Вы не можете голосовать в опросах
    Вы не можете прикреплять файлы к сообщениям
    Вы можете скачивать файлы