Ссылка на приватное зеркало всего за 1$. Внимание количество ограничено!!!

OK

1+1

iTunes

мы

OK

1

WEB-DLRip

Джокер

Пифагор

Ведьмак / The Witcher сериал

iTunes

ПШазам

ОК

Оно 2

iTunes

30
pack

Вам бонус

ВАЖНО

!!Акция!!

Alien_RageХит недели

RePack

Resident Evil 21

ИГРА 18+

pack

RePack

jed

RePack

fifa19

RePack

Assassins Creed: Odyssey

RePack

NEED FOR SPEED™ PAYBACK

4 сезон

9 сезон

Бесстыжие 9 сезон

Все сериалы

все сериалы на PB.wtf

RePack

FAR CRY 5
  

Приключения Реми / Без семьи, Реми без семьи / Rémi sans famille (Антуан Блоссье) [2018, Драма, приключения, BDRip 720p] DUB [iTunes] pb.wtf

Приключения Реми через торрент pb.wtf

Раздают: 3 [ 0 KB/s ]
Размер: 4.56 GB | Добавлен: 4 мес. 9 д. назад | Торрент скачан:93 раза
Скачать  

18-09-2019 03:24 Приключения Реми Скачать торрент  

Приключения Реми / Без семьи, Реми без семьи / Rémi sans famille
Год выпуска: 2018
Страна: Франция
Жанр: Драма, приключения
Продолжительность: 01:48:11
Перевод: Дублированный | iTunes
Субтитры: Английские

Режиссер: Антуан Блоссье

rating

В ролях: Даниель Отой, Малом Пакуин, Виржини Ледуайен, Жонатан Заккаи, Жак Перрен, Людивин Санье, Альбан Массон, Саймон Армстронг, Жером Кашон

Описание: Экранизация романа 1878 года французского писателя Гектора Мало. Удивительное путешествие по Франции маленького Реми в компании уличного музыканта, обезьянки и цирковой собаки. Вместе им предстоит пережить неожиданные встречи, приключения и испытания, раскрыть тайну происхождения мальчика.

Качество: BDRip 720p
Формат: MKV

Видео: MPEG-4 AVC, 1280x536, 5023 Kbit/s, 24 fps
Аудио#1: 48 kHz, AC3, 5.1, 384 Kbps | iTunes | RUS |
Аудио#2: 48 kHz, AC3, 5.1, 640 Kbps | Оригинал | FRE |
скриншот  скриншот  скриншот  скриншот  скриншот  

General
Unique ID : 205732802206396488388921621933475099072 (0x9AC6B24950A9EE4AD23EA49A4A8DF1C0)
Complete name : D:Video111Remi.sans.famille.2018.BDRip.720p.seleZen.mkv
Format : Matroska
Format version : Version 4
File size : 4.56 GiB
Duration : 1 h 48 min
Overall bit rate : 6 035 kb/s
Movie name : Remi sans famille 2018 from селезень
Encoded date : UTC 2019-09-17 19:47:45
Writing application : mkvmerge v22.0.0 ('At The End Of The World') 64-bit
Writing library : libebml v1.3.5 + libmatroska v1.4.8

Video
ID : 1
Format : AVC
Format/Info : Advanced Video Codec
Format profile : High@L4.1
Format settings : CABAC / 12 Ref Frames
Format settings, CABAC : Yes
Format settings, Reference : 12 frames
Codec ID : V_MPEG4/ISO/AVC
Duration : 1 h 48 min
Bit rate : 5 023 kb/s
Width : 1 280 pixels
Height : 536 pixels
Display aspect ratio : 2.40:1
Frame rate mode : Constant
Frame rate : 24.000 FPS
Color space : YUV
Chroma subsampling : 4:2:0
Bit depth : 8 bits
Scan type : Progressive
Bits/(Pixel*Frame) : 0.305
Stream size : 3.79 GiB (83%)
Title : Encoded by seleZen
Writing library : x264 core 148 r2705kMod 3f5ed56
Encoding settings : cabac=1 / ref=12 / deblock=1:-2:-2 / analyse=0x3:0x113 / me=umh / subme=11 / psy=1 / fade_compensate=0.00 / psy_rd=1.02:0.00 / mixed_ref=1 / me_range=32 / chroma_me=1 / trellis=2 / 8x8dct=1 / cqm=0 / deadzone=21,11 / fast_pskip=0 / chroma_qp_offset=-2 / threads=17 / lookahead_threads=4 / sliced_threads=0 / nr=0 / decimate=0 / interlaced=0 / bluray_compat=0 / constrained_intra=0 / fgo=0 / bframes=10 / b_pyramid=2 / b_adapt=2 / b_bias=0 / direct=3 / weightb=1 / open_gop=0 / weightp=2 / keyint=240 / keyint_min=23 / scenecut=40 / intra_refresh=0 / rc_lookahead=50 / rc=2pass / mbtree=0 / bitrate=5023 / ratetol=1.0 / qcomp=0.60 / qpmin=0 / qpmax=51 / qpstep=4 / cplxblur=20.0 / qblur=0.5 / vbv_maxrate=50000 / vbv_bufsize=62500 / nal_hrd=none / filler=0 / ip_ratio=1.40 / pb_ratio=1.30 / aq=3:0.80
Language : English
Default : Yes
Forced : No

Audio #1
ID : 2
Format : AC-3
Format/Info : Audio Coding 3
Commercial name : Dolby Digital
Codec ID : A_AC3
Duration : 1 h 48 min
Bit rate mode : Constant
Bit rate : 384 kb/s
Channel(s) : 6 channels
Channel layout : L R C LFE Ls Rs
Sampling rate : 48.0 kHz
Frame rate : 31.250 FPS (1536 SPF)
Bit depth : 16 bits
Compression mode : Lossy
Stream size : 297 MiB (6%)
Title : iTunes
Language : Russian
Service kind : Complete Main
Default : Yes
Forced : Yes

Audio #2
ID : 3
Format : AC-3
Format/Info : Audio Coding 3
Commercial name : Dolby Digital
Codec ID : A_AC3
Duration : 1 h 48 min
Bit rate mode : Constant
Bit rate : 640 kb/s
Channel(s) : 6 channels
Channel layout : L R C LFE Ls Rs
Sampling rate : 48.0 kHz
Frame rate : 31.250 FPS (1536 SPF)
Bit depth : 16 bits
Compression mode : Lossy
Stream size : 495 MiB (11%)
Title : Original
Language : French
Service kind : Complete Main
Default : No
Forced : No

Text
ID : 4
Format : UTF-8
Codec ID : S_TEXT/UTF8
Codec ID/Info : UTF-8 Plain Text
Duration : 1 h 38 min
Bit rate : 44 b/s
Count of elements : 960
Stream size : 32.3 KiB (0%)
Title : Full
Language : English
Default : No
Forced : No

Menu
00:00:00.000 : en:Chapter 01
00:11:34.125 : en:Chapter 02
00:20:23.458 : en:Chapter 03
00:31:56.166 : en:Chapter 04
00:39:20.333 : en:Chapter 05
00:51:20.000 : en:Chapter 06
01:00:27.250 : en:Chapter 07
01:11:19.375 : en:Chapter 08
01:21:33.333 : en:Chapter 09
01:30:19.041 : en:Chapter 10
01:43:10.125 : en:Chapter 11

pb.wtf



Скачать Приключения Реми через торрент https://img15.lostpic.net/2019/09/17/e7e515296169c8c8235d477e0ca0f2c2.jpg Скачать фильм Приключения Реми через торрент бесплантно в хорошем качестве Описание: Экранизация романа 1878 года французского писателя Гектора Мало. Удивительное путешествие по Франции маленького Реми в компании ... 9.7 10 6
Торрент: Зарегистрирован [2019-09-18 03:24] · скачан: 93 раз
Статус: √ проверено
Размер: 4.56 GB
Как cкачать? Как скачать Приключения Реми через торрент | qTorrent

% Раздел Тема Автор DL S | L
Фильмы 2018 [DVDrip, WEB-DLRip, HDrip] (DUB, MVO) [ 1.41 GB ] Реми / Без семьи Реми без семьи / Rémi sans famille [2018 BDRip] bober100 Скачать
6 | 0
Фильмы [HD 720p, 1080p] (Хороший звук DUB, MVO) [ 8.69 GB ] Реми / Без семьи Реми без семьи / Rémi sans famille [2018 BDRip 1080p] bober100 Скачать
5 | 0
Фильмы (Blu-ray, BD-Remux, HDDVD) [ 25.66 GB ] Реми / Без семьи Реми без семьи / Rémi sans famille [2018 BD Remux 1080p] bober100 Скачать
1 | 0

28-11-2019 20:33  

Отключить всю рекламу на сайте

    Дорогой пользователь! Огромная просьба, поблагодарите релизера, оцените раздачу и оставьте свои комментарий, если Вы скачали Приключения Реми через торрент бесплатно! Внесите свою лепту в развитие PiratBit!
    Комментировать посты могут только пользователи прошедшие не сложную регистрацию
    Показать сообщения:    

    Приключения Реми через торрент
    Скачать бесплатно Приключения Реми
    Приключения Реми скачать торрент
    Приключения Реми смотреть онлайн
    Cкачать фильм Приключения Реми бесплатно
    Приключения Реми скачать торрент в хорошем качестве
    Приключения Реми смотреть онлайн бесплатно в хорошем качестве


    Вы не можете начинать темы
    Вы не можете отвечать на сообщения
    Вы не можете редактировать свои сообщения
    Вы не можете удалять свои сообщения
    Вы не можете голосовать в опросах
    Вы не можете прикреплять файлы к сообщениям
    Вы можете скачивать файлы