Anonymous, доброй ночи, присоединяйтесь к нам в Telegram!, здесь всегда актуальный адрес сайта, оперативная поддержка и многое другое!

>

5.5

iTunes

7.4

iTunes

7.9

iTunes

1

7.7

1 сезон

6.8

iTunes

7.3

1 сезон

13

6.7

1 сезон

8.3

RePack

30

ULTIMATE

pack

9.9

Лицензия

ВАЖНО

ИГРА 18+

pack

7.3

RePack

MK11

7.7

RePack

jed

7.8

RePack

fifa19

8.5

RePack

RDR2

RePack

NEED FOR SPEED™ PAYBACK

4 сезон

9 сезон

Бесстыжие 9 сезон

Все сериалы

все сериалы на PB.wtf

RePack

FAR CRY 5

Anonymous, доброй ночи, мы катастрофически не успеваем собрать деньги на оплату серверов, помогите нам пожалуйста 5,10,15р., для нас важна любая помощь . В качестве благодарности мы отключим Вам всю рекламу на сайте (укажите свой ник в строку Ваше имя)!

×
  
Magnet ссылка

Чернобыль: Зона отчуждения. Финал / Фильм: 1-3 из 3 + Фильм о фильме (Дмитрий Киселёв) [2019, Триллер, фантастика, WEB-DLRip-AVC] pb.wtf

Чернобыль: Зона отчуждения. Финал через торрент pb.wtf

Размер: 6.7 GB | Добавлен: 2 года назад | Торрент скачан:319 раз
Смотреть онлайн Чернобыль: Зона отчуждения. Финал | Скачать    Ребята, помогите собрать деньги на оплату серверов!!!

19-09-2019 03:47 Чернобыль: Зона отчуждения. Финал Скачать торрент  

Чернобыль: Зона отчуждения. Финал
Год выпуска: 2019
Страна: Россия
Жанр: Триллер, фантастика
Продолжительность: ~ 01:41:44
Перевод: Не требуется
Субтитры: отсутствуют

Режиссер: Дмитрий Киселёв



В ролях: Константин Давыдов, Кристина Казинская, Сергей Романович, Анвар Халилулаев, Валерия Дмитриева, Евгений Стычкин, Илья Щербинин, Владимир Ильин, Сергей Дрейден, Евгений Сытый, Иван Мулин, Александр Яценко, Артём Сучков

Описание: «Чернобыль: Зона отчуждения. Финал» поставит точку в истории пятерых подростков, попытавшихся предотвратить самую известную в мире техногенную катастрофу. Им придётся вернуться, туда, откуда все начиналось – в Чернобыль, чтобы разгадать тайну происхождения Зоны отчуждения. Полнометражный фильм даст ответы на все загадки и интриги, а его создатели обещают выкрутить до максимума динамичность действия, зрелищность экшен-сцен и качество визуальных спецэффектов.

Качество: WEB-DLRip-AVC
Формат: MKV

Видео: 1024х428 (16:9), 25 fps, AVC MPEG-4 (x264), High@L4.1 ~ 2500 kbps avg, 0.248 bit/pixel
Аудио: 48 kHz, AC3, 2/0 (L,R) ch, ~192 kbps
скриншот  скриншот  скриншот  скриншот  

Общее
Уникальный идентификатор : 170341779031730362735399140516950820504 (0x8026A220101734F4A2701189D0ADC698)
Полное имя : C:\Chernobyl.Zona.otchuzhdeniya.Final.2019.WEB-DLRip.(AVC).ExKinoRay\Chernobyl.Zona.otchuzhdeniya.Final.(1.film.iz.3).2019.WEB-DLRip.(AVC).ExKinoRay.mkv
Формат : Matroska
Версия формата : Version 4
Размер файла : 1,91 Гбайт
Продолжительность : 1 ч. 41 м.
Общий поток : 2694 Кбит/сек
Дата кодирования : UTC 2019-09-19 00:23:57
Программа кодирования : mkvmerge v6.9.1 ('Blue Panther') 64bit built on Apr 18 2014 18:23:38
Библиотека кодирования : libebml v1.3.0 + libmatroska v1.4.1

Видео
Идентификатор : 1
Формат : AVC
Формат/Информация : Advanced Video Codec
Профиль формата : High@L4.1
Настройки формата : CABAC / 10 Ref Frames
Параметр CABAC формата : Да
Параметр RefFrames формата : 10 кадров
Идентификатор кодека : V_MPEG4/ISO/AVC
Продолжительность : 1 ч. 41 м.
Битрейт : 2500 Кбит/сек
Ширина : 1024 пикселя
Высота : 428 пикселей
Соотношение сторон : 2,40:1
Режим частоты кадров : Постоянный
Частота кадров : 25,000 кадров/сек
Цветовое пространство : YUV
Субдискретизация насыщенности : 4:2:0
Битовая глубина : 8 бит
Тип развёртки : Прогрессивная
Бит/(Пиксели*Кадры) : 0.228
Размер потока : 1,74 Гбайт (91%)
Библиотека кодирования : x264 core 146 r2538 121396c
Настройки программы : cabac=1 / ref=10 / deblock=1:-3:-3 / analyse=0x3:0x113 / me=umh / subme=11 / psy=1 / psy_rd=1.00:0.20 / mixed_ref=1 / me_range=32 / chroma_me=1 / trellis=2 / 8x8dct=1 / cqm=0 / deadzone=21,11 / fast_pskip=1 / chroma_qp_offset=-3 / threads=24 / lookahead_threads=6 / sliced_threads=0 / nr=0 / decimate=0 / interlaced=0 / bluray_compat=0 / constrained_intra=0 / bframes=12 / b_pyramid=2 / b_adapt=2 / b_bias=0 / direct=3 / weightb=1 / open_gop=0 / weightp=2 / keyint=250 / keyint_min=25 / scenecut=40 / intra_refresh=0 / rc_lookahead=60 / rc=2pass / mbtree=1 / bitrate=2500 / ratetol=1.0 / qcomp=0.60 / qpmin=0 / qpmax=69 / qpstep=4 / cplxblur=20.0 / qblur=0.5 / vbv_maxrate=14000 / vbv_bufsize=14000 / nal_hrd=none / filler=0 / ip_ratio=1.40 / aq=3:1.40
Default : Нет
Forced : Нет
Цветовой диапазон : Limited
Основные цвета : BT.709
Характеристики трансфера : BT.709
Коэффициенты матрицы : BT.709

Аудио
Идентификатор : 2
Формат : AC-3
Формат/Информация : Audio Coding 3
Коммерческое название : Dolby Digital
Идентификатор кодека : A_AC3
Продолжительность : 1 ч. 41 м.
Вид битрейта : Постоянный
Битрейт : 192 Кбит/сек
Каналы : 2 канала
ChannelLayout : L R
Частота : 48,0 КГц
Частота кадров : 31,250 кадров/сек (1536 SPF)
Метод сжатия : С потерями
Размер потока : 140 Мбайт (7%)
Язык : Russian
ServiceKind/String : Complete Main
Default : Да
Forced : Да

Раздача ведётся путём добавления новых серий, при каждом добавлении создаётся новый торрент. Чтобы начать докачку новой серии, пользователям необходимо сделать следующее:

- Остановить скачивание.
- Удалить старый торрент у себя из клиента (старые серии удалять не надо).
- Скачать новый торрент и запустить его у себя в клиенте вместо старого, при этом указать клиенту путь в старую папку куда и должно происходить скачивание новых серий.

Ваш клиент при этом должен произвести хеширование (проверку) старой папки (если не производит сам - помогите ему сделать это), и будет докачивать только те серии которых у вас ещё нет. Старые серии при этом не удаляются, а продолжают раздаваться!
Если вы уже удалили старые серии, то предотвратить повторную закачку старых серий можно, отжав галочку в соответствующих местах при запуске нового торрента. По возможности, желательно не удалять старые серии как можно дольше, чтобы релизер не столько продолжал раздавать старые серии, а смог сконцентрироваться на новых.
pb.wtf



Скачать Чернобыль: Зона отчуждения. Финал через торрент https://img16.lostpic.net/2019/09/19/8f4ba4b6383cd6aa918f6def2e898b3c.jpg Скачать, смотреть онлайн Чернобыль: Зона отчуждения. Финал бесплантно в хорошем качестве Описание: «Чернобыль: Зона отчуждения. Финал» поставит точку в истории пятерых подростков, попытавшихся предотвратить самую известную в ... 9.8 10 15
Торрент: Зарегистрирован [2019-10-03 08:37] · скачан: 319 раз
Статус: √ проверено
Размер: 6.7 GB
Как cкачать? Как скачать Чернобыль: Зона отчуждения. Финал через торрент | UTorrent

% Раздел Тема Автор DL S | L
TNT serials [ 4.75 GB ] Чернобыль: Зона отчуждения. Финал / Фильм: 1-3 из 3 + Фильм о фильме [2019 WEB-DLRip] bober100 Скачать
1 | 0
TNT serials [ 12.79 GB ] Чернобыль: Зона отчуждения. Финал / Фильм: 1-3 из 3 + Фильм о фильме [2019 WEB-DL 1080p] bober100 Скачать
3 | 0
TNT serials [ 8.88 GB ] Чернобыль: Зона отчуждения. Финал / Фильм: 1-3 из 3 + Фильм о фильме [2019 WEB-DL 720p] bober100 Скачать
1 | 0


Последний раз редактировалось: bober100 (2019-10-03 08:37), всего редактировалось 2 раз(а)

28-11-2019 20:33  

Отключить всю рекламу на сайте

19-09-2019 07:18 Чернобыль: Зона отчуждения. Финал Скачать торрент  

зачем путать людей какой финал , есть части 1 и 2 , это 2 часть ?????pb.wtf



21-09-2019 16:04 Чернобыль: Зона отчуждения. Финал Скачать торрент  

2 серия выйдет 26 сентября 3 серия 3 октября источник тнтпремьер!pb.wtf



03-10-2019 14:02 Чернобыль: Зона отчуждения. Финал Скачать торрент  

Какой же фуфел)) тупо хайп на названии сериала известном во всем мире от BBC )))pb.wtf



15-10-2019 17:03 Чернобыль: Зона отчуждения. Финал Скачать торрент  

john222 писал(а):

Какой же фуфел)) тупо хайп на названии сериала известном во всем мире от BBC )))

Ты вообще не в теме походу. Так-то первые два сезона "Чернобыль: зона отчуждения" вышли раньше чем тот сериал. А это 3-й сезон.pb.wtf



    Дорогой пользователь! Огромная просьба, поблагодарите релизера, оцените раздачу и оставьте свои комментарий, если Вы скачали Чернобыль: Зона отчуждения. Финал через торрент бесплатно!
    Комментировать посты могут только пользователи прошедшие не сложную регистрацию
    Показать сообщения:    

    Чернобыль: Зона отчуждения. Финал через торрент
    Скачать бесплатно Чернобыль: Зона отчуждения. Финал
    Чернобыль: Зона отчуждения. Финал скачать торрент
    Чернобыль: Зона отчуждения. Финал смотреть онлайн
    Cкачать фильм Чернобыль: Зона отчуждения. Финал бесплатно
    Чернобыль: Зона отчуждения. Финал скачать торрент в хорошем качестве
    Чернобыль: Зона отчуждения. Финал смотреть онлайн бесплатно в хорошем качестве


    Вы не можете начинать темы
    Вы не можете отвечать на сообщения
    Вы не можете редактировать свои сообщения
    Вы не можете удалять свои сообщения
    Вы не можете голосовать в опросах
    Вы не можете прикреплять файлы к сообщениям
    Вы можете скачивать файлы