Ссылка на приватное зеркало нашего сайта всего за 1$. Внимание количество ограничено!!!

2 сезон

iTunes

1 сезон

1

2 сезон

2 сезон

iTunes

1 сезон

RePack

30

Ultimate

ВАЖНО

ИГРА 18+

pack

RePack

MK11
pack

Забери бонус

RePack

jed

!!Акция!!

Alien_Rage

RePack

fifa19

RePack

Assassins Creed: Odyssey

RePack

NEED FOR SPEED™ PAYBACK

4 сезон

9 сезон

Бесстыжие 9 сезон

Все сериалы

все сериалы на PB.wtf

RePack

FAR CRY 5
  

Та, которой не было / Celle que vous croyez (Сэфи Неббу) [2019, Драма, мелодрама, WEB-DL 1080p] MVO [FocusStudio] pb.wtf

Та, которой не было через торрент pb.wtf

Размер: 3.68 GB | Добавлен: 1 год 2 мес. назад | Торрент скачан:72 раза
Скачать  

19-09-2019 04:15 Та, которой не было Скачать торрент  

Та, которой не было / Celle que vous croyez
Год выпуска: 2019
Страна: Франция, Бельгия
Жанр: Драма, мелодрама
Продолжительность: 01:37:23
Перевод: Профессиональный (многоголосый) | FocusStudio
Субтитры: отсутствуют

Режиссер: Сэфи Неббу

rating

В ролях: Жюльет Бинош, Николь Гарсиа, Франсуа Сивиль, Мари-Анж Каста, Гийом Гуи, Шарль Берлинг, Жуль Уплен, Жюль Гозлен, Френсис Леплей, Пьер Жиро

Описание: Несколько лет назад Клэр тяжело пережила измену мужа и развод. Постепенно ее жизнь наладилась: она преподает в университете, воспитывает двух мальчиков и встречается с молодым любовником. Но однажды тот, высмеяв ее чувства, исчезает. Мир Клэр рассыпается на осколки. Желание спастись от отчаяния — это прямая дорога к психоаналитику или… создание фальшивого профиля в фейсбуке. Здесь она предстает 24-летней сексуальной красавицей Кларой. И очень скоро у нее завязываются виртуальные отношения с молодым фотографом Алексом. Кокетливый трёп перерастает во взаимную привязанность, а потом и в настоящую страсть.

Качество: WEB-DL 1080p
Формат: MKV

Видео: MPEG-4 AVC Video, 1912x800 (2.40:1), 4529 Kbps, 25.000 fps
Аудио#1: Russian (AC3, 6 ch, 384 kbps, 16 bits, 48.0 KHz) - FocusStudio
Аудио#2: French (AC3, 6 ch, 384 kbps, 16 bits, 48.0 KHz) - Original
скриншот  скриншот  скриншот  скриншот  

General
Unique ID : 198833762213854078542536120879164455102 (0x9595FD5A6056DD619AB3325037BC78BE)
Complete name : Celle.Que.Vous.Croyez.WEB-DL.1080p.FocusX.mkv
Format : Matroska
Format version : Version 4 / Version 2
File size : 3.68 GiB
Duration : 1 h 37 min
Overall bit rate : 5 405 kb/s
Movie name : Celle Que Vous Croyez @ FocusX
Encoded date : UTC 2019-09-17 13:38:32
Writing application : mkvmerge v8.1.0 ('Psychedelic Postcard') 64bit
Writing library : libebml v1.3.1 + libmatroska v1.4.2

Video
ID : 1
Format : AVC
Format/Info : Advanced Video Codec
Format profile : High@L4
Format settings, CABAC : Yes
Format settings, RefFrames : 5 frames
Codec ID : V_MPEG4/ISO/AVC
Duration : 1 h 37 min
Bit rate : 4 529 kb/s
Width : 1 912 pixels
Height : 800 pixels
Display aspect ratio : 2.40:1
Frame rate mode : Constant
Frame rate : 25.000 FPS
Color space : YUV
Chroma subsampling : 4:2:0
Bit depth : 8 bits
Scan type : Progressive
Bits/(Pixel*Frame) : 0.118
Stream size : 3.08 GiB (84%)
Title : PREUMS
Language : French
Default : Yes
Forced : No
Color range : Limited
Color primaries : BT.709
Transfer characteristics : BT.709
Matrix coefficients : BT.709

Audio #1
ID : 2
Format : AC-3
Format/Info : Audio Coding 3
Format settings, Endianness : Big
Codec ID : A_AC3
Duration : 1 h 37 min
Bit rate mode : Constant
Bit rate : 384 kb/s
Channel(s) : 6 channels
Channel positions : Front: L C R, Side: L R, LFE
Sampling rate : 48.0 kHz
Frame rate : 31.250 FPS (1536 SPF)
Bit depth : 16 bits
Compression mode : Lossy
Stream size : 267 MiB (7%)
Title : MVO FocusX
Language : Russian
Service kind : Complete Main
Default : Yes
Forced : No

Audio #2
ID : 3
Format : AC-3
Format/Info : Audio Coding 3
Format settings, Endianness : Big
Codec ID : A_AC3
Duration : 1 h 37 min
Bit rate mode : Constant
Bit rate : 384 kb/s
Channel(s) : 6 channels
Channel positions : Front: L C R, Side: L R, LFE
Sampling rate : 48.0 kHz
Frame rate : 31.250 FPS (1536 SPF)
Bit depth : 16 bits
Compression mode : Lossy
Stream size : 267 MiB (7%)
Language : French
Service kind : Complete Main
Default : No
Forced : No

Menu
00:00:00.000 : en:Chapitre 01
00:09:00.000 : en:Chapitre 02
00:18:00.000 : en:Chapitre 03
00:27:00.000 : en:Chapitre 04
00:36:00.000 : en:Chapitre 05
00:45:00.000 : en:Chapitre 06
00:54:00.000 : en:Chapitre 07
01:03:00.000 : en:Chapitre 08
01:12:00.000 : en:Chapitre 09
01:21:00.000 : en:Chapitre 10

pb.wtf



Скачать Та, которой не было через торрент https://i87.fastpic.ru/big/2019/0918/5b/095573fc7732b52c9ce8194ccf14d95b.jpg Скачать фильм Та, которой не было через торрент бесплантно в хорошем качестве Описание: Несколько лет назад Клэр тяжело пережила измену мужа и развод. Постепенно ее жизнь наладилась: она преподает в университете, ... 9.4 10 5
Торрент: Зарегистрирован [2019-09-19 04:15] · скачан: 72 раз
Статус: √ проверено
Размер: 3.68 GB
Как cкачать? Как скачать Та, которой не было через торрент | qTorrent

% Раздел Тема Автор DL S | L
Фильмы [HD 720p, 1080p] (Хороший звук DUB, MVO) [ 9.95 GB ] Та которой не было / Celle que vous croyez / Who You Think I Am [2019 BDRip 1080p] bober100 Скачать
1 | 0
Фильмы [HD 720p, 1080p] (Хороший звук DUB, MVO) [ 3.56 GB ] Та которой не было / Celle que vous croyez / Who You Think I Am [2019 BDRip 720p] bober100 Скачать
1 | 0
Фильмы 2019-2020 [DVDrip, WEB-DLRip, HDrip] (DUB, MVO) [ 1.52 GB ] Та которой не было / Celle que vous croyez / Who You Think I Am [2019 BDRip-AVC] bober100 Скачать
2 | 0
Фильмы 2019-2020 [DVDrip, WEB-DLRip, HDrip] (DUB, MVO) [ 1.46 GB ] Та которой не было / Celle que vous croyez / Who You Think I Am [2019 BDRip] bober100 Скачать
1 | 0
Фильмы 2019-2020 [DVDrip, WEB-DLRip, HDrip] (DUB, MVO) [ 1.46 GB ] Та которой не было / Celle que vous croyez [2019 WEB-DLRip] [MVO] killermax2013 Скачать
2 | 0

28-11-2019 20:33  

Отключить всю рекламу на сайте

    Дорогой пользователь! Огромная просьба, поблагодарите релизера, оцените раздачу и оставьте свои комментарий, если Вы скачали Та, которой не было через торрент бесплатно! Внесите свою лепту в развитие PiratBit!
    Комментировать посты могут только пользователи прошедшие не сложную регистрацию
    Показать сообщения:    

    Та, которой не было через торрент
    Скачать бесплатно Та, которой не было
    Та, которой не было скачать торрент
    Та, которой не было смотреть онлайн
    Cкачать фильм Та, которой не было бесплатно
    Та, которой не было скачать торрент в хорошем качестве
    Та, которой не было смотреть онлайн бесплатно в хорошем качестве


    Вы не можете начинать темы
    Вы не можете отвечать на сообщения
    Вы не можете редактировать свои сообщения
    Вы не можете удалять свои сообщения
    Вы не можете голосовать в опросах
    Вы не можете прикреплять файлы к сообщениям
    Вы можете скачивать файлы