Ссылка на приватное зеркало всего за 1$. Внимание количество ограничено!!!

OK

1+1

iTunes

мы

OK

1

WEB-DLRip

Джокер

Пифагор

Ведьмак / The Witcher сериал

iTunes

ПШазам

ОК

Оно 2

iTunes

30
pack

Вам бонус

ВАЖНО

!!Акция!!

Alien_RageХит недели

RePack

Resident Evil 21

ИГРА 18+

pack

RePack

jed

RePack

fifa19

RePack

Assassins Creed: Odyssey

RePack

NEED FOR SPEED™ PAYBACK

4 сезон

9 сезон

Бесстыжие 9 сезон

Все сериалы

все сериалы на PB.wtf

RePack

FAR CRY 5
  

Эшер / Asher (Майкл Кейтон-Джонс) [2018, Драма, криминал, BDRip-AVC] 2xMVO [iTunes, HDRezka Studio] pb.wtf

Эшер через торрент pb.wtf

Раздают: 1 [ 0 KB/s ]
Размер: 2.02 GB | Добавлен: 4 мес. 5 д. назад | Торрент скачан:107 раз
Скачать  

19-09-2019 16:31 Эшер Скачать торрент  

Эшер / Asher««From the creator of THIS IS US»» Год выпуска: 2018
Страна: США
Жанр: Драма, криминал
Продолжительность: 01:44:01
Перевод:

#1: Профессиональный (многоголосый) | iTunes
#2: Профессиональный (многоголосый) | HDRezka Studio

Субтитры: Английские (полные, SDH)

Режиссер: Майкл Кейтон-Джонс

rating

В ролях: Фамке Янссен, Рон Перлман, Ричард Дрейфусс, Жаклин Биссет, Питер Фачинелли, Гай Бернет, Блейк Перлман, Марта Миланс, Джей Хайрон, Бобби Дэниэл Родригес

Описание: Стареющий наемный убийца с богатым послужным списком понимает, что его лучшие годы давно позади, и скоро придётся уйти на покой. Однако, по старой дружбе, он соглашается на последнее прибыльное дело, не осознавая, что переходит дорогу силам, имеющим огромное влияние в криминальном мире.

Качество: BDRip-AVC
Формат: MKV

Видео: 1024x426 (2.40:1), 23,976 fps, x264 ~1 759 Кбит/сек, 0.168 bit/pixel
Аудио#1: 48 kHz, AC3 Dolby Digital, 3/2 (L,C,R,l,r) + LFE ch, ~384.00 kbps avg | RUS (iTunes)
Аудио#2: 48 kHz, AC3 Dolby Digital, 2 (L,R) ch, ~192.00 kbps avg | RUS (HDRezka Studio)
Аудио#3: 48 kHz, AC3 Dolby Digital, 3/2 (L,C,R,l,r) + LFE ch, ~448.00 kbps avg | ENG
скриншот  скриншот  скриншот  скриншот  

Общее
Уникальный идентификатор : 172013622961467668649026677797901411026 (0x81689E651D9C5F5DB9FB2C9E3C51A2D2)
Полное имя : F:OlLanDGroupAsher.2018.BDRip(AVC).OlLanDGroup.mkv
Формат : Matroska
Версия формата : Version 4 / Version 2
Размер файла : 2,02 Гбайт
Продолжительность : 1 ч. 44 м.
Общий поток : 2782 Кбит/сек
Название фильма : Asher.2018 #TorpedoUK#
Дата кодирования : UTC 2019-09-19 15:55:03
Программа кодирования : mkvmerge v29.0.0 ('Like It Or Not') 64-bit
Библиотека кодирования : libebml v1.3.6 + libmatroska v1.4.9

Видео
Идентификатор : 1
Формат : AVC
Формат/Информация : Advanced Video Codec
Профиль формата : High@L4.1
Параметр CABAC формата : Да
Параметр ReFrames формата : 10 кадров
Идентификатор кодека : V_MPEG4/ISO/AVC
Продолжительность : 1 ч. 44 м.
Битрейт : 1759 Кбит/сек
Ширина : 1024 пикселя
Высота : 426 пикселей
Соотношение сторон : 2,40:1
Режим частоты кадров : Постоянный
Частота кадров : 23,976 (24000/1001) кадра/сек
Цветовое пространство : YUV
Субдискретизация насыщенности : 4:2:0
Битовая глубина : 8 бит
Тип развёртки : Прогрессивная
Бит/(Пиксели*Кадры) : 0.168
Размер потока : 1,28 Гбайт (63%)
Библиотека кодирования : x264 core 146 r2538 121396c
Настройки программы : cabac=1 / ref=10 / deblock=1:-3:-3 / analyse=0x3:0x113 / me=umh / subme=11 / psy=1 / psy_rd=0.99:0.04 / mixed_ref=1 / me_range=48 / chroma_me=1 / trellis=2 / 8x8dct=1 / cqm=0 / deadzone=21,11 / fast_pskip=1 / chroma_qp_offset=-3 / threads=6 / lookahead_threads=1 / sliced_threads=0 / nr=0 / decimate=1 / interlaced=0 / bluray_compat=0 / constrained_intra=0 / bframes=11 / b_pyramid=2 / b_adapt=2 / b_bias=0 / direct=3 / weightb=1 / open_gop=0 / weightp=2 / keyint=240 / keyint_min=23 / scenecut=40 / intra_refresh=0 / rc_lookahead=40 / rc=2pass / mbtree=0 / bitrate=1759 / ratetol=1.0 / qcomp=0.60 / qpmin=0 / qpmax=69 / qpstep=4 / cplxblur=20.0 / qblur=0.5 / vbv_maxrate=50000 / vbv_bufsize=62500 / nal_hrd=none / filler=0 / ip_ratio=1.40 / pb_ratio=1.30 / aq=1:1.00
Язык : English
Default : Да
Forced : Нет

Аудио #1
Идентификатор : 2
Формат : AC-3
Формат/Информация : Audio Coding 3
Расширение режима : CM (complete main)
Параметр Endianness формата : Big
Идентификатор кодека : A_AC3
Продолжительность : 1 ч. 44 м.
Вид битрейта : Постоянный
Битрейт : 384 Кбит/сек
Каналы : 6 каналов
Расположение каналов : Front: L C R, Side: L R, LFE
Частота : 48,0 КГц
Частота кадров : 31,250 кадров/сек (1536 spf)
Битовая глубина : 16 бит
Метод сжатия : С потерями
Размер потока : 286 Мбайт (14%)
Заголовок : MVO [iTunes]
Язык : Russian
Default : Да
Forced : Нет

Аудио #2
Идентификатор : 3
Формат : AC-3
Формат/Информация : Audio Coding 3
Расширение режима : CM (complete main)
Параметр Endianness формата : Big
Идентификатор кодека : A_AC3
Продолжительность : 1 ч. 44 м.
Вид битрейта : Постоянный
Битрейт : 192 Кбит/сек
Каналы : 2 канала
Расположение каналов : Front: L R
Частота : 48,0 КГц
Частота кадров : 31,250 кадров/сек (1536 spf)
Битовая глубина : 16 бит
Метод сжатия : С потерями
Размер потока : 143 Мбайт (7%)
Заголовок : MVO [HDRezka Studio]
Язык : Russian
Default : Нет
Forced : Нет

Аудио #3
Идентификатор : 4
Формат : AC-3
Формат/Информация : Audio Coding 3
Расширение режима : CM (complete main)
Параметр Endianness формата : Big
Идентификатор кодека : A_AC3
Продолжительность : 1 ч. 44 м.
Вид битрейта : Постоянный
Битрейт : 448 Кбит/сек
Каналы : 6 каналов
Расположение каналов : Front: L C R, Side: L R, LFE
Частота : 48,0 КГц
Частота кадров : 31,250 кадров/сек (1536 spf)
Битовая глубина : 16 бит
Метод сжатия : С потерями
Размер потока : 333 Мбайт (16%)
Заголовок : [Original]
Язык : English
Default : Нет
Forced : Нет

Текст #1
Идентификатор : 5
Формат : UTF-8
Идентификатор кодека : S_TEXT/UTF8
Идентификатор кодека/Информация : UTF-8 Plain Text
Продолжительность : 1 ч. 43 м.
Битрейт : 30 бит/сек
Count of elements : 851
Размер потока : 23,0 Кбайт (0%)
Заголовок : Full
Язык : English
Default : Нет
Forced : Нет

Текст #2
Идентификатор : 6
Формат : UTF-8
Идентификатор кодека : S_TEXT/UTF8
Идентификатор кодека/Информация : UTF-8 Plain Text
Продолжительность : 1 ч. 43 м.
Битрейт : 37 бит/сек
Count of elements : 1057
Размер потока : 28,7 Кбайт (0%)
Заголовок : SDH
Язык : English
Default : Нет
Forced : Нет

Меню
00:00:00.000 : :Chapter 01
00:06:31.057 : :Chapter 02
00:14:27.867 : :Chapter 03
00:19:57.279 : :Chapter 04
00:26:55.280 : :Chapter 05
00:32:28.613 : :Chapter 06
00:38:28.389 : :Chapter 07
00:45:13.753 : :Chapter 08
00:52:10.753 : :Chapter 09
01:00:41.304 : :Chapter 10
01:05:30.009 : :Chapter 11
01:10:38.568 : :Chapter 12
01:19:02.655 : :Chapter 13
01:25:54.024 : :Chapter 14
01:32:51.566 : :Chapter 15
01:38:57.431 : :Chapter 16

pb.wtf



Скачать Эшер через торрент https://i106.fastpic.ru/big/2019/0115/9c/bbd24432cc29d3621341a0d537dc199c.jpg Скачать фильм Эшер через торрент бесплантно в хорошем качестве Описание: Стареющий наемный убийца с богатым послужным списком понимает, что его лучшие годы давно позади, и скоро придётся уйти на покой. ... 10 10 6
Торрент: Зарегистрирован [2019-09-19 16:31] · скачан: 107 раз
Статус: √ проверено
Размер: 2.02 GB
Как cкачать? Как скачать Эшер через торрент | qTorrent

% Раздел Тема Автор DL S | L
Зарубежные сериалы [ 11.64 GB ] Слэшер / Slasher / Сезон: 3 / Серии: 1-8 из 8 [2019 WEB-DL 1080p] [MVO] killermax2013 Скачать
3 | 0
Зарубежные сериалы [ 14.59 GB ] Слэшер / Slasher / Сезон: 2 / Серии: 1-8 из 8 [2017 WEB-DL 1080p] [MVO] killermax2013 Скачать
1 | 0
Зарубежные сериалы [ 32.85 GB ] Слэшер / Slasher / Сезон: 1 / Серии: 1-8 из 8 [2016 BDRip 1080p] [MVO] killermax2013 Скачать
1 | 1
Фильмы (Blu-ray, BD-Remux, HDDVD) [ 19.21 GB ] Эшер / Asher [2018 BD Remux 1080p] 2xMVO [ HDRezka Studio] bober100 Скачать
1 | 0
Фильмы 2018 [DVDrip, WEB-DLRip, HDrip] (DUB, MVO) [ 1.42 GB ] Эшер / Asher [2018 BDRip] MVO Twi7ter Скачать
11 | 0
Фильмы 2018 [DVDrip, WEB-DLRip, HDrip] (DUB, MVO) [ 1.41 GB ] Эшер / Asher [2018 BDRip] MVO bober100 Скачать
1 | 0
Фильмы [HD 720p, 1080p] (Хороший звук DUB, MVO) [ 8.5 GB ] Эшер / Asher [2018 BDRip 1080p] 2xMVO [ HDRezka Studio] bober100 Скачать
3 | 0

28-11-2019 20:33  

Отключить всю рекламу на сайте

    Дорогой пользователь! Огромная просьба, поблагодарите релизера, оцените раздачу и оставьте свои комментарий, если Вы скачали Эшер через торрент бесплатно! Внесите свою лепту в развитие PiratBit!
    Комментировать посты могут только пользователи прошедшие не сложную регистрацию
    Показать сообщения:    

    Эшер через торрент
    Скачать бесплатно Эшер
    Эшер скачать торрент
    Эшер смотреть онлайн
    Cкачать фильм Эшер бесплатно
    Эшер скачать торрент в хорошем качестве
    Эшер смотреть онлайн бесплатно в хорошем качестве


    Вы не можете начинать темы
    Вы не можете отвечать на сообщения
    Вы не можете редактировать свои сообщения
    Вы не можете удалять свои сообщения
    Вы не можете голосовать в опросах
    Вы не можете прикреплять файлы к сообщениям
    Вы можете скачивать файлы