новый адрес
Ссылка на приватное зеркало всего за 1$. Внимание количество ограничено!!!

iTunes

1+1

iTunes

мы

WEB-DL

1

iTunes

Чернобыль

iTunes

Ральф против интернета

Лицензия

ПШазам

Лицензия

Оно 2

Лицензия

30
pack

Вам бонус

ВАЖНО

!!Акция!!

Alien_RageХит недели

RePack

Resident Evil 21

ИГРА 18+

pack

RePack

jed

!!Акция!!

Alien_Rage

RePack

fifa19

RePack

Assassins Creed: Odyssey

RePack

NEED FOR SPEED™ PAYBACK

3 сезон

9 сезон

Бесстыжие 9 сезон

Все сериалы

все сериалы на PB.wtf

RePack

FAR CRY 5
Ребята, катастрофически не хватает 1900р. для оплаты серверов за Октябрь (всвязи с блокировками трафик упал в 3 раза), 1-2р., выручайте.
  

Эшер / Asher (Майкл Кейтон-Джонс) [2018, Драма, криминал, BD Remux 1080p] 2xMVO [iTunes, HDRezka Studio] pb.wtf

Эшер через торрент pb.wtf

Размер: 19.21 GB | Добавлен: 2 мес. 19 д. назад | Торрент скачан:10 раз
Скачать  

19-09-2019 16:36 Эшер Скачать торрент  

Эшер / Asher««From the creator of THIS IS US»» Год выпуска: 2018
Страна: США
Жанр: Драма, криминал
Продолжительность: 01:44:01
Перевод:

#1: Профессиональный (многоголосый) | iTunes
#2: Профессиональный (многоголосый) | HDRezka Studio

Субтитры: Английские

Режиссер: Майкл Кейтон-Джонс

rating

В ролях: Фамке Янссен, Рон Перлман, Ричард Дрейфусс, Жаклин Биссет, Питер Фачинелли, Гай Бернет, Блейк Перлман, Марта Миланс, Джей Хайрон, Бобби Дэниэл Родригес

Описание: Стареющий наемный убийца с богатым послужным списком понимает, что его лучшие годы давно позади, и скоро придётся уйти на покой. Однако, по старой дружбе, он соглашается на последнее прибыльное дело, не осознавая, что переходит дорогу силам, имеющим огромное влияние в криминальном мире.

Качество: BD Remux 1080p
Формат: MKV

Видео: MPEG-4 AVC, 1920x1080, 24.0 Mbit/s, 23.976 fps
Аудио#01: 48 kHz, AC3, 5.1, 384 Kbps | iTunes | RUS |
Аудио#02: 48 kHz, AC3, 5.1, 192 Kbps | HDRezka Studio | RUS |
Аудио#03: 48 kHz, DTS-HD MA, 5.1, 1862 Kbps | Оригинал | ENG |
скриншот  скриншот  скриншот  скриншот  скриншот  

General
Unique ID : 87123881750662648939347179569219844095 (0x418B7303964EADD9DC2DA01F576B37FF)
Complete name : D:Video111Asher.2018.BDREMUX.1080p.seleZen.mkv
Format : Matroska
Format version : Version 4
File size : 19.2 GiB
Duration : 1 h 44 min
Overall bit rate mode : Variable
Overall bit rate : 26.4 Mb/s
Movie name : Asher 2018 from селезень
Encoded date : UTC 2019-09-19 15:13:20
Writing application : mkvmerge v22.0.0 ('At The End Of The World') 64-bit
Writing library : libebml v1.3.5 + libmatroska v1.4.8

Video
ID : 1
Format : AVC
Format/Info : Advanced Video Codec
Format profile : High@L4.1
Format settings : CABAC / 4 Ref Frames
Format settings, CABAC : Yes
Format settings, Reference : 4 frames
Codec ID : V_MPEG4/ISO/AVC
Duration : 1 h 44 min
Bit rate mode : Variable
Bit rate : 24.0 Mb/s
Maximum bit rate : 35.0 Mb/s
Width : 1 920 pixels
Height : 1 080 pixels
Display aspect ratio : 16:9
Frame rate mode : Constant
Frame rate : 23.976 (24000/1001) FPS
Standard : NTSC
Color space : YUV
Chroma subsampling : 4:2:0
Bit depth : 8 bits
Scan type : Progressive
Bits/(Pixel*Frame) : 0.483
Stream size : 17.4 GiB (91%)
Language : English
Default : Yes
Forced : No
Color range : Limited
Color primaries : BT.709
Transfer characteristics : BT.709
Matrix coefficients : BT.709

Audio #1
ID : 2
Format : AC-3
Format/Info : Audio Coding 3
Commercial name : Dolby Digital
Codec ID : A_AC3
Duration : 1 h 44 min
Bit rate mode : Constant
Bit rate : 384 kb/s
Channel(s) : 6 channels
Channel layout : L R C LFE Ls Rs
Sampling rate : 48.0 kHz
Frame rate : 31.250 FPS (1536 SPF)
Bit depth : 16 bits
Compression mode : Lossy
Stream size : 286 MiB (1%)
Title : MVO [iTunes]
Language : Russian
Service kind : Complete Main
Default : Yes
Forced : Yes

Audio #2
ID : 3
Format : AC-3
Format/Info : Audio Coding 3
Commercial name : Dolby Digital
Codec ID : A_AC3
Duration : 1 h 44 min
Bit rate mode : Constant
Bit rate : 192 kb/s
Channel(s) : 2 channels
Channel layout : L R
Sampling rate : 48.0 kHz
Frame rate : 31.250 FPS (1536 SPF)
Bit depth : 16 bits
Compression mode : Lossy
Stream size : 143 MiB (1%)
Title : MVO [HDRezka Studio]
Language : Russian
Service kind : Complete Main
Default : No
Forced : No

Audio #3
ID : 4
Format : DTS XLL
Format/Info : Digital Theater Systems
Commercial name : DTS-HD Master Audio
Codec ID : A_DTS
Duration : 1 h 44 min
Bit rate mode : Variable
Bit rate : 1 862 kb/s
Channel(s) : 6 channels
Channel layout : C L R Ls Rs LFE
Sampling rate : 48.0 kHz
Frame rate : 93.750 FPS (512 SPF)
Bit depth : 16 bits
Compression mode : Lossless
Stream size : 1.35 GiB (7%)
Title : Original
Language : English
Default : No
Forced : No

Text
ID : 5
Format : UTF-8
Codec ID : S_TEXT/UTF8
Codec ID/Info : UTF-8 Plain Text
Duration : 1 h 43 min
Bit rate : 30 b/s
Count of elements : 851
Stream size : 23.0 KiB (0%)
Language : English
Default : No
Forced : No

Menu
00:00:00.000 : en:Chapter 1
00:06:31.057 : en:Chapter 2
00:14:27.867 : en:Chapter 3
00:19:57.279 : en:Chapter 4
00:26:55.280 : en:Chapter 5
00:32:28.613 : en:Chapter 6
00:38:28.389 : en:Chapter 7
00:45:13.753 : en:Chapter 8
00:52:10.753 : en:Chapter 9
01:00:41.304 : en:Chapter 10
01:05:30.009 : en:Chapter 11
01:10:38.568 : en:Chapter 12
01:19:02.655 : en:Chapter 13
01:25:54.024 : en:Chapter 14
01:32:51.566 : en:Chapter 15
01:38:57.431 : en:Chapter 16

pb.wtf



Скачать Эшер через торрент https://i106.fastpic.ru/big/2019/0115/9c/bbd24432cc29d3621341a0d537dc199c.jpg Скачать фильм Эшер через торрент бесплантно в хорошем качестве Описание: Стареющий наемный убийца с богатым послужным списком понимает, что его лучшие годы давно позади, и скоро придётся уйти на покой. ... 10 10 3
Торрент: Зарегистрирован [2019-09-19 16:36] · скачан: 10 раз
Статус: √ проверено
Размер: 19.21 GB
Как cкачать? Как скачать Эшер через торрент | qTorrent

% Раздел Тема Автор DL S | L
Фильмы 2018 [DVDrip, WEB-DLRip, HDrip] (DUB, MVO) [ 2.02 GB ] Эшер / Asher [2018 BDRip-AVC] 2xMVO [ HDRezka Studio] bober100 Скачать
2 | 0
Фильмы 2018 [DVDrip, WEB-DLRip, HDrip] (DUB, MVO) [ 1.42 GB ] Эшер / Asher [2018 BDRip] MVO Twi7ter Скачать
11 | 0
Фильмы 2018 [DVDrip, WEB-DLRip, HDrip] (DUB, MVO) [ 1.41 GB ] Эшер / Asher [2018 BDRip] MVO bober100 Скачать
1 | 0
Фильмы [HD 720p, 1080p] (Хороший звук DUB, MVO) [ 8.5 GB ] Эшер / Asher [2018 BDRip 1080p] 2xMVO [ HDRezka Studio] bober100 Скачать
3 | 0
Зарубежные сериалы [ 6.64 GB ] Настоящие О’Нилы / The Real O'Neals / Сезон: 2 / Серии 1-16 из 16 [2016 WEBRip-AVC] MVO [BaibaKo] GEKADOL Скачать
1 | 0
Зарубежные сериалы [ 5.41 GB ] Настоящие О’Нилы / The Real O'Neals / Сезон: 1 / Серии 1-13 из 13 [2016 WEBRip-AVC] MVO [BaibaKo] GEKADOL Скачать
1 | 0
Зарубежные сериалы [ 5.94 GB ] Слешер / Слэшер / Резня / Slasher / Сезон: 1 / Серии 1-8 из 8 [2016 WEB-DLRip] MVO [Alternative Production] GEKADOL Скачать
1 | 0

28-11-2019 20:33  

Отключить всю рекламу на сайте

    Дорогой пользователь! Огромная просьба, поблагодарите релизера, оцените раздачу и оставьте свои комментарий, если Вы скачали Эшер через торрент бесплатно! Внесите свою лепту в развитие PiratBit!
    Комментировать посты могут только пользователи прошедшие не сложную регистрацию
    Показать сообщения:    

    Эшер через торрент
    Скачать бесплатно Эшер
    Эшер скачать торрент
    Эшер смотреть онлайн
    Cкачать фильм Эшер бесплатно
    Эшер скачать торрент в хорошем качестве
    Эшер смотреть онлайн бесплатно в хорошем качестве


    Вы не можете начинать темы
    Вы не можете отвечать на сообщения
    Вы не можете редактировать свои сообщения
    Вы не можете удалять свои сообщения
    Вы не можете голосовать в опросах
    Вы не можете прикреплять файлы к сообщениям
    Вы можете скачивать файлы