Ссылка на приватное зеркало нашего сайта всего за 1$. Внимание количество ограничено!!!

2 сезон

iTunes

1 сезон

1

2 сезон

2 сезон

iTunes

1 сезон

RePack

30

Ultimate

ВАЖНО

ИГРА 18+

pack

RePack

MK11
pack

Забери бонус

RePack

jed

!!Акция!!

Alien_Rage

RePack

fifa19

RePack

Assassins Creed: Odyssey

RePack

NEED FOR SPEED™ PAYBACK

4 сезон

9 сезон

Бесстыжие 9 сезон

Все сериалы

все сериалы на PB.wtf

RePack

FAR CRY 5
  

Спарринг / Sparring (Самуэль Жуи) [2017, Драма, WEB-DL 1080p] MVO [iTunes] pb.wtf

Спарринг через торрент pb.wtf

Размер: 3.16 GB | Добавлен: 1 год 2 мес. назад | Торрент скачан:71 раз
Скачать  

19-09-2019 18:12 Спарринг Скачать торрент  

Спарринг / Sparring
Год выпуска: 2017
Страна: Франция
Жанр: Драма
Продолжительность: 01:30:49
Перевод: Профессиональный многоголосый | iTunes
Субтитры: отсутствуют

Режиссер: Самуэль Жуи

rating

В ролях: Матьё Кассовиц, Оливия Мерилахти, Сулейман М'Бай, Билли Блэйн, Томи Леконте, Лье Салем, Али Лабиди, Давид Саракино, Йоланта Де Керсмакер, Малик Бин

Описание: В жизни каждого есть поражения и победы. Стив - обычный семьянин. Он мечтает стать известным боксером. Но пока ему приходится зарабатывать на жизнь, используя свое тело как боксерскую грушу на ринге. Неожиданно ему выпадает уникальный шанс: принять участие в бое за титул чемпиона.

Качество: WEB-DL 1080p
Формат: MKV

Видео: MPEG-4 AVC, 1920x804, 4505 Kbps, 25.000 fps
Аудио: 48 kHz, AC3 Dolby Digital, 3/2 (L,C,R,l,r) + LFE ch, ~384 kbps
скриншот  скриншот  скриншот  скриншот  скриншот  

General
Уникальный идентификатор : 246718176140007123844556337615654462972 (0xB99C313C3A80DEA3B282D4C13FD5A5FC)
Полное имя : SPARRING_2017_WEB-DL_1080p-BLUEBIRD.mkv
Формат : Matroska
Версия формата : Version 4 / Version 2
Размер файла : 3.16 GiB
Продолжительность : 1 h 30 min
Общий поток : 4 989 kb/s
Название фильма : SPARRING_2017_WEB-DL_1080p-BLUEBIRD
Дата кодирования : UTC 2019-09-18 20:15:22
Программа кодирования : mkvmerge v6.9.1 ('Blue Panther') 32bit built on Apr 18 2014 18:15:44
Библиотека кодирования : libebml v1.3.0 + libmatroska v1.4.1
Обложка : Yes
Attachments : cover3.png

Video
Идентификатор : 1
Формат : AVC
Формат/Информация : Advanced Video Codec
Профиль формата : High@L4
Настройки формата : CABAC / 5 Ref Frames
Параметр CABAC формата : Yes
Параметр RefFrames формата : 5 frames
Идентификатор кодека : V_MPEG4/ISO/AVC
Продолжительность : 1 h 30 min
Битрейт : 4 505 kb/s
Ширина : 1 920 pixels
Высота : 804 pixels
Соотношение сторон : 2.40:1
Режим частоты кадров : Constant
Частота кадров : 25.000 FPS
Цветовое пространство : YUV
Субдискретизация насыщенности : 4:2:0
Битовая глубина : 8 bits
Тип развёртки : Progressive
Бит/(Пиксели*Кадры) : 0.117
Размер потока : 2.86 GiB (90%)
Заголовок : SPARRING_2017_WEB-DL_1080p-BLUEBIRD
Язык : English
Default : Yes
Forced : No
Цветовой диапазон : Limited
Основные цвета : BT.709
Характеристики трансфера : BT.709
Коэффициенты матрицы : BT.709

Audio
Идентификатор : 2
Формат : AC-3
Формат/Информация : Audio Coding 3
Идентификатор кодека : A_AC3
Продолжительность : 1 h 30 min
Вид битрейта : Constant
Битрейт : 384 kb/s
Каналы : 6 channels
Расположение каналов : Front: L C R, Side: L R, LFE
Частота : 48.0 kHz
Частота кадров : 31.250 FPS (1536 SPF)
Битовая глубина : 16 bits
Метод сжатия : Lossy
Размер потока : 249 MiB (8%)
Заголовок : [MVO] DD 5.1 @ 384 kbps (iTunes)
Язык : Russian
Default : Yes
Forced : No

Menu
00:00:00.000 : en:Глава 1
00:07:23.840 : en:Глава 2
00:13:27.120 : en:Глава 3
00:20:13.760 : en:Глава 4
00:26:54.080 : en:Глава 5
00:34:04.440 : en:Глава 6
00:40:25.320 : en:Глава 7
00:47:19.680 : en:Глава 8
00:54:20.600 : en:Глава 9
01:02:32.040 : en:Глава 10
01:10:10.960 : en:Глава 11
01:16:09.400 : en:Глава 12
01:23:18.920 : en:Глава 13

pb.wtf



Скачать Спарринг через торрент https://c.radikal.ru/c25/1909/0b/0541d02e558d.png Скачать фильм Спарринг через торрент бесплантно в хорошем качестве Описание: В жизни каждого есть поражения и победы. Стив - обычный семьянин. Он мечтает стать известным боксером. Но пока ему приходится ... 10 10 5
Торрент: Зарегистрирован [2019-09-19 18:12] · скачан: 71 раз
Статус: √ проверено
Размер: 3.16 GB
Как cкачать? Как скачать Спарринг через торрент | qTorrent

% Раздел Тема Автор DL S | L
Фильмы 2017 [DVDrip, WEB-DLRip, HDrip] (DUB, MVO) [ 1.46 GB ] Спарринг / Sparring [2017 WEB-DLRip] MVO bober100 Скачать
1 | 0

28-11-2019 20:33  

Отключить всю рекламу на сайте

    Дорогой пользователь! Огромная просьба, поблагодарите релизера, оцените раздачу и оставьте свои комментарий, если Вы скачали Спарринг через торрент бесплатно! Внесите свою лепту в развитие PiratBit!
    Комментировать посты могут только пользователи прошедшие не сложную регистрацию
    Показать сообщения:    

    Спарринг через торрент
    Скачать бесплатно Спарринг
    Спарринг скачать торрент
    Спарринг смотреть онлайн
    Cкачать фильм Спарринг бесплатно
    Спарринг скачать торрент в хорошем качестве
    Спарринг смотреть онлайн бесплатно в хорошем качестве


    Вы не можете начинать темы
    Вы не можете отвечать на сообщения
    Вы не можете редактировать свои сообщения
    Вы не можете удалять свои сообщения
    Вы не можете голосовать в опросах
    Вы не можете прикреплять файлы к сообщениям
    Вы можете скачивать файлы