новый адрес
Мега распродажа FORZA HORIZON 4 ULTIMATE+ВСЕ DLC+ОНЛАЙН всего за 499р. 349 руб. (супер цена). Внимание количество ограничено!!!

iTunes

1+1

iTunes

мы

iTunes

1

iTunes

Чернобыль

iTunes

Ральф против интернета

Лицензия

ПШазам

Лицензия

Игра престолов

Лицензия

30
pack

ВАЖНО

!!Акция!!

Alien_RageХит недели

RePack

Resident Evil 21

ИГРА 18+

pack

RePack

Metro:Exodus

!!Акция!!

Alien_Rage

RePack

fifa19

RePack

Assassins Creed: Odyssey

RePack

NEED FOR SPEED™ PAYBACK

3 сезон

9 сезон

Бесстыжие 9 сезон

Все сериалы

все сериалы на PB.wtf

RePack

FAR CRY 5
Ребята, катастрофически не хватает 1900р. для оплаты серверов за Октябрь (всвязи с блокировками трафик упал в 3 раза), 1-2р., выручайте.
  

Проклятие Аннабель 3 / Annabelle Comes Home (Гари Доберман) [2019, Ужасы, триллер, детектив, WEB-DL 720p] DUB (rus,ukr) [iTunes] pb.wtf

Проклятие Аннабель 3 через торрент pb.wtf

Раздают: 6 [ 0 KB/s ]
Размер: 3.84 GB | Добавлен: 1 мес. 27 д. назад | Торрент скачан:131 раз
Скачать  

19-09-2019 20:49 Проклятие Аннабель 3 Скачать торрент  

Проклятие Аннабель 3 / Annabelle Comes Home
Год выпуска: 2019
Страна: США
Жанр: Ужасы, триллер, детектив
Продолжительность: 01:46:03
Перевод: Дублированный | iTunes
Субтитры: Russian (forced, full), Ukrainian (forced), English (full)

Режиссер: Гари Доберман

rating

В ролях: Маккенна Грейс, Мэдисон Айсмен, Кэти Сариф, Вера Фармига, Патрик Уилсон, Майкл Чимино, Самара Ли, Кензи Каплан, Шаде Катарина, Майкл Патрик МакГилл

Описание: Преисполнившись решимости удержать Аннабель от дальнейших разрушений и хаоса, демонологи Эд и Лоррейн Уоррены приносят одержимую куклу в запертую комнату артефактов в своем доме, поместив ее под «надежное» освященное стекло и заручившись благословением священника. Однако беспросветная ночь ужаса ждет обитателей дома, когда Аннабель пробуждает злых духов комнаты и их новой мишенью становится десятилетняя дочь Уорренов Джуди и ее друзья.

Качество: WEB-DL 720p
Формат: MKV

Видео: MPEG-4 AVC, 1280x536, 4098 kbps, 23.976 fps
Аудио#1: Russian: AC3, 48.0 KHz, 6 ch, 384 kbps - DUB, iTunes
Аудио#2: Ukrainian: AAC, 48.0 KHz, 2 ch, 160 kbps - DUB, iTunes
Аудио#3: English: AC3, 48.0 KHz, 6 ch, 384 kbps - Original, iTunes
Аудио#4: English: AAC, 48.0 KHz, 2 ch, 160 kbps - Deive, iTunes
скриншот  скриншот  скриншот  скриншот  скриншот  

General
Unique ID : 176993781272396858602146365114176145563 (0x8527C3283561D4DF188C9AAA4F62889B)
Complete name : Annabelle.Comes.Home.2019.720p.WEB-DL.Rus.Ukr.Eng.TemHD.mkv
Format : Matroska
Format version : Version 4
File size : 3.84 GiB
Duration : 1h 46mn
Overall bit rate : 5 177 Kbps
Encoded date : UTC 2019-09-19 19:43:12
Writing application : mkvmerge v8.5.1 ('Where you lead I will follow') 64bit
Writing library : libebml v1.3.3 + libmatroska v1.4.4

Video
ID : 1
Format : AVC
Format/Info : Advanced Video Codec
Format profile : Main@L3.1
Format settings : 2 Ref Frames
Format settings, CABAC : No
Format settings, ReFrames : 2 frames
Codec ID : V_MPEG4/ISO/AVC
Duration : 1h 46mn
Bit rate : 4 098 Kbps
Width : 1 280 pixels
Height : 536 pixels
Display aspect ratio : 2.40:1
Frame rate mode : Constant
Frame rate : 23.976 (24000/1001) fps
Color space : YUV
Chroma subsampling : 4:2:0
Bit depth : 8 bits
Scan type : Progressive
Bits/(Pixel*Frame) : 0.249
Stream size : 3.04 GiB (79%)
Title : Main Program
Language : English
Default : Yes
Forced : No
Color range : Limited
Color primaries : BT.709
Transfer characteristics : BT.709
Matrix coefficients : BT.709

Audio #1
ID : 2
Format : AC-3
Format/Info : Audio Coding 3
Commercial name : Dolby Digital
Codec ID : A_AC3
Duration : 1h 46mn
Bit rate mode : Constant
Bit rate : 384 Kbps
Channel(s) : 6 channels
Channel layout : L R C LFE Ls Rs
Sampling rate : 48.0 KHz
Frame rate : 31.250 fps (1536 SPF)
Bit depth : 16 bits
Compression mode : Lossy
Stream size : 291 MiB (7%)
Title : Russian DUB from iTunes Russia DD 5.1
Language : Russian
Service kind : Complete Main
Default : Yes
Forced : No

Audio #2
ID : 3
Format : AAC LC
Format/Info : Advanced Audio Codec Low Complexity
Codec ID : A_AAC-2
Duration : 1h 46mn
Bit rate : 154 Kbps
Channel(s) : 2 channels
Channel layout : L R
Sampling rate : 48.0 KHz
Frame rate : 46.875 fps (1024 SPF)
Compression mode : Lossy
Stream size : 116 MiB (3%)
Title : Ukrainian DUB from iTunes Russia Srereo
Language : Ukrainian
Default : No
Forced : No

Audio #3
ID : 4
Format : AC-3
Format/Info : Audio Coding 3
Commercial name : Dolby Digital
Codec ID : A_AC3
Duration : 1h 46mn
Bit rate mode : Constant
Bit rate : 384 Kbps
Channel(s) : 6 channels
Channel layout : L R C LFE Ls Rs
Sampling rate : 48.0 KHz
Frame rate : 31.250 fps (1536 SPF)
Bit depth : 16 bits
Compression mode : Lossy
Stream size : 291 MiB (7%)
Title : English from iTunes Russia DD 5.1
Language : English
Service kind : Complete Main
Default : No
Forced : No

Audio #4
ID : 5
Format : AAC LC
Format/Info : Advanced Audio Codec Low Complexity
Codec ID : A_AAC-2
Duration : 1h 46mn
Bit rate : 154 Kbps
Channel(s) : 2 channels
Channel layout : L R
Sampling rate : 48.0 KHz
Frame rate : 46.875 fps (1024 SPF)
Compression mode : Lossy
Stream size : 117 MiB (3%)
Title : English Deive from iTunes Russia DD 5.1
Language : English
Default : No
Forced : No

Text #1
ID : 6
Format : UTF-8
Codec ID : S_TEXT/UTF8
Codec ID/Info : UTF-8 Plain Text
Duration : 1h 37mn
Bit rate : 5 bps
Count of elements : 36
Stream size : 3.91 KiB (0%)
Title : Russia Forced Subtitle
Language : Russian
Default : Yes
Forced : No

Text #2
ID : 7
Format : UTF-8
Codec ID : S_TEXT/UTF8
Codec ID/Info : UTF-8 Plain Text
Duration : 1h 42mn
Bit rate : 5 bps
Count of elements : 38
Stream size : 4.25 KiB (0%)
Title : Ukrainian Forced Subtitle
Language : Ukrainian
Default : No
Forced : No

Text #3
ID : 8
Format : UTF-8
Codec ID : S_TEXT/UTF8
Codec ID/Info : UTF-8 Plain Text
Duration : 1h 45mn
Bit rate : 118 bps
Count of elements : 900
Stream size : 91.6 KiB (0%)
Title : Russia Subtitle
Language : Russian
Default : No
Forced : No

Text #4
ID : 9
Format : UTF-8
Codec ID : S_TEXT/UTF8
Codec ID/Info : UTF-8 Plain Text
Duration : 1h 40mn
Bit rate : 60 bps
Count of elements : 1236
Stream size : 44.8 KiB (0%)
Title : English CC Subtitle
Language : English
Default : No
Forced : No

Menu
00:00:00.000 : en:1
00:07:58.000 : en:2
00:15:34.000 : en:3
00:24:02.000 : en:4
00:32:57.000 : en:5
00:43:00.000 : en:6
00:52:29.000 : en:7
01:02:07.000 : en:8
01:06:14.000 : en:9
01:15:05.000 : en:10
01:21:45.000 : en:11
01:30:22.000 : en:12
01:39:58.000 : en:13

pb.wtf



Скачать Проклятие Аннабель 3 через торрент https://b.radikal.ru/b21/1909/1d/85c6b2aa01e2.jpg Скачать фильм Проклятие Аннабель 3 через торрент бесплантно в хорошем качестве Описание: Преисполнившись решимости удержать Аннабель от дальнейших разрушений и хаоса, демонологи Эд и Лоррейн Уоррены приносят одержимую ... 10 10 7
Торрент: Зарегистрирован [2019-09-19 20:49] · скачан: 131 раз
Статус: √ проверено
Размер: 3.84 GB
Как cкачать? Как скачать Проклятие Аннабель 3 через торрент | qTorrent

% Раздел Тема Автор DL S | L
Фильмы [HD 720p, 1080p] (Хороший звук DUB, MVO) [ 4.93 GB ] Проклятие Аннабель 3 / Annabelle Comes Home [2019 BDRip 720p] DUB [] MVO [HDRezka Studio] - ExKinoRay Enigma2010 Скачать
194 | 29
Фильмы 2019 [DVDrip, WEB-DLRip, HDrip] (DUB, MVO) [ 747 MB ] Проклятие Аннабель 3 / Annabelle Comes Home [2019 HDRip] DUB [] bober100 Скачать
4 | 2
Фильмы [HD 720p, 1080p] (Хороший звук DUB, MVO) [ 12.47 GB ] Проклятие Аннабель 3 / Annabelle Comes Home [2019 BDRip 1080p] DUB [] +MVO [HDRezka Studio] bober100 Скачать
3 | 0
Фильмы 2019 [DVDrip, WEB-DLRip, HDrip] (DUB, MVO) [ 2.2 GB ] Проклятие Аннабель 3 / Annabelle Comes Home [2019 BDRip-AVC] DUB [] MVO - ExKinoRay Enigma2010 Скачать
119 | 9
Фильмы (Blu-ray, BD-Remux, HDDVD) [ 37.29 GB ] Проклятие Аннабель 3 / Annabelle Comes Home [2019 Blu-Ray EUR 1080p] DUB [] bober100 Скачать
2 | 0
Фильмы 2019 [DVDrip, WEB-DLRip, HDrip] (DUB, MVO) [ 1.46 GB ] Проклятие Аннабель 3 / Annabelle Comes Home [2019 BDRip] - [] Twi7ter Скачать
43 | 5
Фильмы 2019 [DVDrip, WEB-DLRip, HDrip] (DUB, MVO) [ 1.62 GB ] Проклятие Аннабель 3 / Annabelle Comes Home [2019 BDRip-AVC] bober100 Скачать
5 | 0


>> Регистрируемся здесь <<






Отзывы и комментарии о схеме читаем и пишем здесь: ---> Отзывы и комментарии о схеме

Новые благодарочки в телеграм довольных пользователей:
скриншот   скриншот   скриншот   скриншот   скриншот

19-09-2019 23:50 Проклятие Аннабель 3 Скачать торрент  

эта была чуть получше предыдущих. 6.0\10 можно и поставитьpb.wtf



    Дорогой пользователь! Огромная просьба, поблагодарите релизера, оцените раздачу и оставьте свои комментарий, если Вы скачали Проклятие Аннабель 3 через торрент бесплатно! Внесите свою лепту в развитие PiratBit!
    Комментировать посты могут только пользователи прошедшие не сложную регистрацию
    Показать сообщения:    

    Проклятие Аннабель 3 через торрент
    Скачать бесплатно Проклятие Аннабель 3
    Проклятие Аннабель 3 скачать торрент
    Проклятие Аннабель 3 смотреть онлайн
    Cкачать фильм Проклятие Аннабель 3 бесплатно
    Проклятие Аннабель 3 скачать торрент в хорошем качестве
    Проклятие Аннабель 3 смотреть онлайн бесплатно в хорошем качестве


    Вы не можете начинать темы
    Вы не можете отвечать на сообщения
    Вы не можете редактировать свои сообщения
    Вы не можете удалять свои сообщения
    Вы не можете голосовать в опросах
    Вы не можете прикреплять файлы к сообщениям
    Вы можете скачивать файлы