новый адрес
Ссылка на приватное зеркало всего за 1$. Внимание количество ограничено!!!

iTunes

1+1

iTunes

мы

WEB-DL

1

iTunes

Чернобыль

iTunes

Ральф против интернета

Лицензия

ПШазам

Лицензия

Оно 2

Лицензия

30
pack

Вам бонус

ВАЖНО

!!Акция!!

Alien_RageХит недели

RePack

Resident Evil 21

ИГРА 18+

pack

RePack

jed

!!Акция!!

Alien_Rage

RePack

fifa19

RePack

Assassins Creed: Odyssey

RePack

NEED FOR SPEED™ PAYBACK

3 сезон

9 сезон

Бесстыжие 9 сезон

Все сериалы

все сериалы на PB.wtf

RePack

FAR CRY 5
Ребята, катастрофически не хватает 1900р. для оплаты серверов за Октябрь (всвязи с блокировками трафик упал в 3 раза), 1-2р., выручайте.
  

Пора созревания пшеницы / Bakushû (Ясудзиро Одзу) [1951, драма, BDRip 1080p by msltel] DVO, AVO pb.wtf

Пора созревания пшеницы через торрент pb.wtf

Размер: 14.11 GB | Добавлен: 2 мес. 15 д. назад | Торрент скачан:0 раз
Скачать  

21-09-2019 06:30 Пора созревания пшеницы Скачать торрент  

Название: Пора созревания пшеницы
Оригинальное название: Bakushû
Год выпуска: 1951
Страна: Япония
Жанр: драма
Продолжительность: 02:04:47
Перевод: закадровый двухголосый, авторский

Режиссер: Ясудзиро Одзу
В ролях: Сэцуко Хара, Тисю Рю, Тикагэ Авасима, Кунико Миякэ, Итиро Сугаи, Тиэко Хигасияма, Харуко Сугимура, Кунико Икава, Хироси Нихонъянаги, Сюдзи Сано, Тоёко Такахаси, Сэйдзи Миягути, Томока Хасебе, Ито Кадзуё, Кокутэн Кодо

О фильме: В обычной японской семье родители переживают за судьбу любимой дочери - ведь Норико находится в возрасте вступления в брак, а женихов на горизонте не предвидится. Увещевания родных не действуют. У барышни свои взгляды, она не спешит с выбором. Ситуацию усугубляет приехавший дядя, который беседует с племянницей и начинает её убеждать побыстрее сделать этот шаг. Он доказывает, что если девушка не замужем, она позорит свою семью. Через некоторое время Норико объявляет родителям о своем необычном выборе...



Качество: BDRip 1080p
Формат: MKV
Видео: MPEG-4 AVC, 15 Mбит/с, 1430x1080
Аудио 1: русский, AC3, 192 kbps, 2 ch, 48 kHz [закадровый двухголосый, Инис]
Аудио 2: русский, DTS, 510 kbps, 2 ch, 48 kHz [авторский, Сергей Визгунов]
Аудио 3: японский, DTS, 510 kbps, 2 ch, 48 kHz [оригинал]
Субтитры 1: русские (pstrkim)
Субтитры 2: английские
Главы/чаптеры
Общее
Уникальный идентификатор : 199113239960220036622902651731110756354 (0x95CBD0AB76D0CC34BCC42873AC378002)
Полное имя : D:\Video\Пора созревания пшеницы.1951.BDRip 1080p by msltel.mkv
Формат : Matroska
Версия формата : Version 4
Размер файла : 14,1 Гбайт
Продолжительность : 2 ч. 4 м.
Общий поток : 16,2 Мбит/сек
Название фильма : Rip by msltel
Дата кодирования : UTC 2019-09-21 03:34:47
Программа кодирования : mkvmerge v8.2.0 ('World of Adventure') 64bit
Библиотека кодирования : libebml v1.3.1 + libmatroska v1.4.2

Видео
Идентификатор : 1
Формат : AVC
Формат/Информация : Advanced Video Codec
Профиль формата : High@L4.1
Настройки формата : CABAC / 4 Ref Frames
Параметр CABAC формата : Да
Параметр RefFrames формата : 4 кадра
Идентификатор кодека : V_MPEG4/ISO/AVC
Продолжительность : 2 ч. 4 м.
Битрейт : 15,0 Мбит/сек
Ширина : 1430 пикселей
Высота : 1080 пикселей
Соотношение сторон : 4:3
Режим частоты кадров : Постоянный
Частота кадров : 23,976 (24000/1001) кадра/сек
Цветовое пространство : YUV
Субдискретизация насыщенности : 4:2:0
Битовая глубина : 8 бит
Тип развёртки : Прогрессивная
Бит/(Пиксели*Кадры) : 0.404
Размер потока : 13,0 Гбайт (92%)
Библиотека кодирования : x264 core 157 r2935 545de2f
Настройки программы : cabac=1 / ref=4 / deblock=1:-2:-2 / analyse=0x3:0x113 / me=umh / subme=11 / psy=1 / psy_rd=1.00:0.15 / mixed_ref=1 / me_range=32 / chroma_me=1 / trellis=2 / 8x8dct=1 / cqm=0 / deadzone=21,11 / fast_pskip=0 / chroma_qp_offset=-3 / threads=6 / lookahead_threads=1 / sliced_threads=0 / nr=0 / decimate=1 / interlaced=0 / bluray_compat=0 / constrained_intra=0 / bframes=13 / b_pyramid=2 / b_adapt=2 / b_bias=0 / direct=1 / weightb=1 / open_gop=0 / weightp=2 / keyint=230 / keyint_min=23 / scenecut=40 / intra_refresh=0 / rc_lookahead=40 / rc=crf / mbtree=1 / crf=21.0 / qcomp=0.60 / qpmin=0 / qpmax=69 / qpstep=4 / vbv_maxrate=50000 / vbv_bufsize=62500 / crf_max=0.0 / nal_hrd=none / filler=0 / ip_ratio=1.40 / aq=1:1.00
Язык : Japanese
Default : Да
Forced : Нет

Аудио #1
Идентификатор : 2
Формат : AC-3
Формат/Информация : Audio Coding 3
Коммерческое название : Dolby Digital
Идентификатор кодека : A_AC3
Продолжительность : 2 ч. 4 м.
Вид битрейта : Постоянный
Битрейт : 192 Кбит/сек
Каналы : 2 канала
ChannelLayout : L R
Частота : 48,0 КГц
Частота кадров : 31,250 кадров/сек (1536 SPF)
Метод сжатия : С потерями
Размер потока : 171 Мбайт (1%)
Заголовок : DVO Инис
Язык : Russian
ServiceKind/String : Complete Main
Default : Да
Forced : Нет

Аудио #2
Идентификатор : 3
Формат : DTS
Формат/Информация : Digital Theater Systems
Идентификатор кодека : A_DTS
Продолжительность : 2 ч. 4 м.
Вид битрейта : Постоянный
Битрейт : 510 Кбит/сек
Каналы : 2 канала
ChannelLayout : L R
Частота : 48,0 КГц
Частота кадров : 93,750 кадра/сек (512 SPF)
Битовая глубина : 24 бит
Метод сжатия : С потерями
Размер потока : 455 Мбайт (3%)
Заголовок : Сергей Визгунов
Язык : Russian
Default : Нет
Forced : Нет

Аудио #3
Идентификатор : 4
Формат : DTS
Формат/Информация : Digital Theater Systems
Идентификатор кодека : A_DTS
Продолжительность : 2 ч. 4 м.
Вид битрейта : Постоянный
Битрейт : 510 Кбит/сек
Каналы : 2 канала
ChannelLayout : L R
Частота : 48,0 КГц
Частота кадров : 93,750 кадра/сек (512 SPF)
Битовая глубина : 24 бит
Метод сжатия : С потерями
Размер потока : 455 Мбайт (3%)
Заголовок : original
Язык : Japanese
Default : Нет
Forced : Нет

Текст #1
Идентификатор : 5
Формат : UTF-8
Идентификатор кодека : S_TEXT/UTF8
Идентификатор кодека/Информация : UTF-8 Plain Text
Продолжительность : 2 ч. 4 м.
Битрейт : 71 бит/сек
ElementCount : 1363
Размер потока : 65,7 Кбайт (0%)
Заголовок : русские pstrkim
Язык : Russian
Default : Нет
Forced : Нет

Текст #2
Идентификатор : 6
Формат : UTF-8
Идентификатор кодека : S_TEXT/UTF8
Идентификатор кодека/Информация : UTF-8 Plain Text
Продолжительность : 2 ч. 4 м.
Битрейт : 44 бит/сек
ElementCount : 1292
Размер потока : 40,7 Кбайт (0%)
Заголовок : английские
Язык : English
Default : Нет
Forced : Нет

Меню
00:00:00.000 : :Chapter 1
00:10:54.653 : :Chapter 2
00:21:46.138 : :Chapter 3
00:31:55.455 : :Chapter 4
00:43:14.174 : :Chapter 5
00:51:48.271 : :Chapter 6
00:59:14.968 : :Chapter 7
01:11:29.576 : :Chapter 8
01:16:58.863 : :Chapter 9
01:24:03.705 : :Chapter 10
01:41:05.726 : :Chapter 11
01:55:57.867 : :Chapter 12
pb.wtf



Скачать Пора созревания пшеницы через торрент https://a.radikal.ru/a35/1909/64/c688bba80085.jpg Скачать фильм Пора созревания пшеницы через торрент бесплантно в хорошем качестве О фильме: В обычной японской семье родители переживают за судьбу любимой дочери - ведь Норико находится в возрасте вступления в брак, а ... 10 10 1
Торрент: Зарегистрирован [2019-09-21 06:30] · скачан: 0 раз
Статус: √ проверено
Размер: 14.11 GB
Как cкачать? Как скачать Пора созревания пшеницы через торрент | qTorrent

% Раздел Тема Автор DL S | L
Арт-хаус и авторское кино [ 5.01 GB ] Пора созревания пшеницы / Bakushû [1951 BDRip 720p by msltel] DVO AVO msltel Скачать
1 | 0

28-11-2019 20:33  

Отключить всю рекламу на сайте

    Дорогой пользователь! Огромная просьба, поблагодарите релизера, оцените раздачу и оставьте свои комментарий, если Вы скачали Пора созревания пшеницы через торрент бесплатно! Внесите свою лепту в развитие PiratBit!
    Комментировать посты могут только пользователи прошедшие не сложную регистрацию
    Показать сообщения:    

    Пора созревания пшеницы через торрент
    Скачать бесплатно Пора созревания пшеницы
    Пора созревания пшеницы скачать торрент
    Пора созревания пшеницы смотреть онлайн
    Cкачать фильм Пора созревания пшеницы бесплатно
    Пора созревания пшеницы скачать торрент в хорошем качестве
    Пора созревания пшеницы смотреть онлайн бесплатно в хорошем качестве


    Вы не можете начинать темы
    Вы не можете отвечать на сообщения
    Вы не можете редактировать свои сообщения
    Вы не можете удалять свои сообщения
    Вы не можете голосовать в опросах
    Вы не можете прикреплять файлы к сообщениям
    Вы можете скачивать файлы