Ссылка на приватное зеркало всего за 1$. Внимание количество ограничено!!!


iTunes

1+1

iTunes

мы

WEB-DL

1

iTunes

Чернобыль

iTunes

Ральф против интернета

Лицензия

ПШазам

Лицензия

Оно 2

WEB-DL

30
pack

Вам бонус

ВАЖНО

!!Акция!!

Alien_RageХит недели

RePack

Resident Evil 21

ИГРА 18+

pack

RePack

jed

!!Акция!!

Alien_Rage

RePack

fifa19

RePack

Assassins Creed: Odyssey

RePack

NEED FOR SPEED™ PAYBACK

4 сезон

9 сезон

Бесстыжие 9 сезон

Все сериалы

все сериалы на PB.wtf

RePack

FAR CRY 5
Ребята, катастрофически не хватает 1900р. для оплаты серверов за Октябрь (всвязи с блокировками трафик упал в 3 раза), 1-2р., выручайте.
  

Токийская повесть / Tokyo monogatari (Ясудзиро Одзу) [1953, драма, BDRip 720p by msltel] MVO pb.wtf

Токийская повесть через торрент pb.wtf

Размер: 6.43 GB | Добавлен: 2 мес. 24 д. назад | Торрент скачан:0 раз
Скачать  

21-09-2019 07:59 Токийская повесть Скачать торрент  

Название: Токийская повесть
Оригинальное название: Tokyo monogatari
Год выпуска: 1953
Страна: Япония
Жанр: драма
Продолжительность: 02:15:53
Перевод: закадровый многоголосый

Режиссер: Ясудзиро Одзу
В ролях: Тисю Рю, Тиэко Хигасияма, Сэцуко Хара, Харуко Сугимура, Со Ямамура, Кунико Миякэ, Кеко Кагава, Эйдзиро Тоно, Нобуо Накамура, Широ Осака, Хисао Тоакэ, Тэруко Нагаока, Мицуко Сакура, Тоеко Такахаси, Тору Абе, Сатико Митани, Дзэн Мурасэ, Мицухиро Мори, Дзюнко Анан, Реко Мидзуки

О фильме: Престарелые супруги Сюкиси и Томи отправляются из южного Ономити в далёкий Токио в гости к своим детям. Те проявляют показную радость, но слишком заняты работой и повседневными делами, чтобы уделить им внимание. Наконец, стариков спроваживают в находящийся поблизости морской курорт Атами. Наиболее тепло и радушно к пожилым супругам относятся не трое их детей и даже не внуки, а Норико, вдова их погибшего на войне сына. В фильме разочарование, горечь и утраты показаны как неизбежные спутники старения, однако последние кадры оставляют просветлённое чувство: хотя старик Сюкиси сидит в опустевшем доме совсем один, по улице едет автобус, с реки гудит пароход — жизнь идёт своим чередом... (Википедия)



Качество: BDRip 720p
Формат: MKV
Видео: MPEG-4 AVC, 6485 Кбит/с, 960x720
Аудио 1: русский, AC3, 96 kbps, 1 ch, 48 kHz [закадровый многоголосый]
Аудио 2: японский, AC3, 192 kbps, 2 ch, 48 kHz [оригинал]
Субтитры 1: русские (fenixclub)
Субтитры 2: английские
Главы/чаптеры
Общее
Уникальный идентификатор : 251649756260255288799705120169008648123 (0xBD51FAE85A9214A59E6A87BEB1D54FBB)
Полное имя : D:\Video\Токийская история.1953.BDRip 720p by msltel.mkv
Формат : Matroska
Версия формата : Version 4
Размер файла : 6,43 Гбайт
Продолжительность : 2 ч. 15 м.
Общий поток : 6775 Кбит/сек
Название фильма : Rip by msltel
Дата кодирования : UTC 2019-09-20 02:11:29
Программа кодирования : mkvmerge v8.2.0 ('World of Adventure') 64bit
Библиотека кодирования : libebml v1.3.1 + libmatroska v1.4.2

Видео
Идентификатор : 1
Формат : AVC
Формат/Информация : Advanced Video Codec
Профиль формата : High@L4.1
Настройки формата : CABAC / 9 Ref Frames
Параметр CABAC формата : Да
Параметр RefFrames формата : 9 кадров
Идентификатор кодека : V_MPEG4/ISO/AVC
Продолжительность : 2 ч. 15 м.
Битрейт : 6485 Кбит/сек
Ширина : 960 пикселей
Высота : 720 пикселей
Соотношение сторон : 4:3
Режим частоты кадров : Постоянный
Частота кадров : 23,976 (24000/1001) кадра/сек
Цветовое пространство : YUV
Субдискретизация насыщенности : 4:2:0
Битовая глубина : 8 бит
Тип развёртки : Прогрессивная
Бит/(Пиксели*Кадры) : 0.391
Размер потока : 6,15 Гбайт (96%)
Библиотека кодирования : x264 core 157 r2935 545de2f
Настройки программы : cabac=1 / ref=9 / deblock=1:-2:-2 / analyse=0x3:0x113 / me=umh / subme=11 / psy=1 / psy_rd=1.00:0.15 / mixed_ref=1 / me_range=32 / chroma_me=1 / trellis=2 / 8x8dct=1 / cqm=0 / deadzone=21,11 / fast_pskip=0 / chroma_qp_offset=-3 / threads=6 / lookahead_threads=1 / sliced_threads=0 / nr=0 / decimate=1 / interlaced=0 / bluray_compat=0 / constrained_intra=0 / bframes=13 / b_pyramid=2 / b_adapt=2 / b_bias=0 / direct=1 / weightb=1 / open_gop=0 / weightp=2 / keyint=230 / keyint_min=23 / scenecut=40 / intra_refresh=0 / rc_lookahead=40 / rc=crf / mbtree=1 / crf=21.0 / qcomp=0.60 / qpmin=0 / qpmax=69 / qpstep=4 / vbv_maxrate=50000 / vbv_bufsize=62500 / crf_max=0.0 / nal_hrd=none / filler=0 / ip_ratio=1.40 / aq=1:1.00
Язык : Japanese
Default : Да
Forced : Нет

Аудио #1
Идентификатор : 2
Формат : AC-3
Формат/Информация : Audio Coding 3
Коммерческое название : Dolby Digital
Идентификатор кодека : A_AC3
Продолжительность : 2 ч. 15 м.
Вид битрейта : Постоянный
Битрейт : 96,0 Кбит/сек
Каналы : 1 канал
ChannelLayout : C
Частота : 48,0 КГц
Частота кадров : 31,250 кадров/сек (1536 SPF)
Метод сжатия : С потерями
Размер потока : 93,3 Мбайт (1%)
Заголовок : MVO
Язык : Russian
ServiceKind/String : Complete Main
Default : Да
Forced : Нет

Аудио #2
Идентификатор : 3
Формат : AC-3
Формат/Информация : Audio Coding 3
Коммерческое название : Dolby Digital
Идентификатор кодека : A_AC3
Продолжительность : 2 ч. 15 м.
Вид битрейта : Постоянный
Битрейт : 192 Кбит/сек
Каналы : 2 канала
ChannelLayout : L R
Частота : 48,0 КГц
Частота кадров : 31,250 кадров/сек (1536 SPF)
Метод сжатия : С потерями
Размер потока : 187 Мбайт (3%)
Заголовок : original
Язык : Japanese
ServiceKind/String : Complete Main
Default : Нет
Forced : Нет

Текст #1
Идентификатор : 4
Формат : UTF-8
Идентификатор кодека : S_TEXT/UTF8
Идентификатор кодека/Информация : UTF-8 Plain Text
Продолжительность : 2 ч. 14 м.
Битрейт : 66 бит/сек
ElementCount : 1361
Размер потока : 65,8 Кбайт (0%)
Заголовок : русские fenixclub
Язык : Russian
Default : Нет
Forced : Нет

Текст #2
Идентификатор : 5
Формат : UTF-8
Идентификатор кодека : S_TEXT/UTF8
Идентификатор кодека/Информация : UTF-8 Plain Text
Продолжительность : 2 ч. 15 м.
Битрейт : 39 бит/сек
ElementCount : 1210
Размер потока : 38,8 Кбайт (0%)
Заголовок : английские
Язык : English
Default : Нет
Forced : Нет

Меню
00:00:00.000 : :Chapter 1
00:12:34.378 : :Chapter 2
00:23:21.691 : :Chapter 3
00:35:26.290 : :Chapter 4
00:45:17.256 : :Chapter 5
00:57:33.241 : :Chapter 6
01:07:33.758 : :Chapter 7
01:21:51.573 : :Chapter 8
01:32:10.107 : :Chapter 9
01:42:38.110 : :Chapter 10
01:53:37.227 : :Chapter 11
02:06:25.578 : :Chapter 12
pb.wtf



Скачать Токийская повесть через торрент https://a.radikal.ru/a18/1909/cc/4921afa65197.jpg Скачать фильм Токийская повесть через торрент бесплантно в хорошем качестве О фильме: Престарелые супруги Сюкиси и Томи отправляются из южного Ономити в далёкий Токио в гости к своим детям. Те проявляют показную ... 5 10 1
Торрент: Зарегистрирован [2019-09-21 07:59] · скачан: 0 раз
Статус: √ проверено
Размер: 6.43 GB
Как cкачать? Как скачать Токийская повесть через торрент | qTorrent

% Раздел Тема Автор DL S | L
Арт-хаус и авторское кино [ 17.44 GB ] Токийская повесть / Tokyo monogatari [1953 BDRip 1080p by msltel] MVO msltel Скачать
1 | 0

28-11-2019 20:33  

Отключить всю рекламу на сайте

    Дорогой пользователь! Огромная просьба, поблагодарите релизера, оцените раздачу и оставьте свои комментарий, если Вы скачали Токийская повесть через торрент бесплатно! Внесите свою лепту в развитие PiratBit!
    Комментировать посты могут только пользователи прошедшие не сложную регистрацию
    Показать сообщения:    

    Токийская повесть через торрент
    Скачать бесплатно Токийская повесть
    Токийская повесть скачать торрент
    Токийская повесть смотреть онлайн
    Cкачать фильм Токийская повесть бесплатно
    Токийская повесть скачать торрент в хорошем качестве
    Токийская повесть смотреть онлайн бесплатно в хорошем качестве


    Вы не можете начинать темы
    Вы не можете отвечать на сообщения
    Вы не можете редактировать свои сообщения
    Вы не можете удалять свои сообщения
    Вы не можете голосовать в опросах
    Вы не можете прикреплять файлы к сообщениям
    Вы можете скачивать файлы