новый адрес
Ссылка на приватное зеркало всего за 1$. Внимание количество ограничено!!!

iTunes

1+1

iTunes

мы

WEB-DL

1

iTunes

Чернобыль

iTunes

Ральф против интернета

Лицензия

ПШазам

Лицензия

Оно 2

Лицензия

30
pack

Вам бонус

ВАЖНО

!!Акция!!

Alien_RageХит недели

RePack

Resident Evil 21

ИГРА 18+

pack

RePack

jed

!!Акция!!

Alien_Rage

RePack

fifa19

RePack

Assassins Creed: Odyssey

RePack

NEED FOR SPEED™ PAYBACK

3 сезон

9 сезон

Бесстыжие 9 сезон

Все сериалы

все сериалы на PB.wtf

RePack

FAR CRY 5
Ребята, катастрофически не хватает 1900р. для оплаты серверов за Октябрь (всвязи с блокировками трафик упал в 3 раза), 1-2р., выручайте.
  

Шафт / Shaft (Тим Стори) [2019, Боевик, комедия, криминал, BDRip-AVC] DUB [Netflix] +AVO [Яроцкий] pb.wtf

Шафт через торрент pb.wtf

Раздают: 7 [ 0 KB/s ]
Размер: 2.45 GB | Добавлен: 2 мес. 15 д. назад | Торрент скачан:348 раз
Скачать  

21-09-2019 09:04 Шафт Скачать торрент  

Шафт / Shaft«More Shaft than you can handle»
Год выпуска: 2019
Страна: США
Жанр: Боевик, комедия, криминал
Продолжительность: 01:51:31
Перевод:

Дублированный | Netflix
Авторский | Яроцкий

Субтитры: Русские (форс., полные)

Режиссер: Тим Стори

rating

В ролях:

Сэмюэл Л. Джексон (John Shaft), Джесси Ашер (JJ Shaft), Ричард Раундтри (John Shaft, Sr), Реджина Холл (Maya Babanikos), Александра Шипп (Sasha Arias), Мэтт Лауриа (Major Gary Cutworth), Титус Уэлливер (Special Agent Vietti), Метод Мэн (Freddy P), Исаак Де Банколе (Pierro «Gordito» Carrera), Эван Джогиа (Karim Hassan), Луна Лорен Велес (Bennie Rodriguez), Робби Джонс (Sergeant Keith Williams)
Описание: Джон Шафт III — специалист по кибербезопасности в ФБР, не привыкший решать проблемы грубой силой. Он предпочитает полагаться на логику и расчёт, но убийство лучшего друга ставит его в тупик. С ним не разобраться современными методами, так что Джону ничего не остается, кроме как обратиться за помощью к старшему поколению Шафтов, чьи старые методы помогут ему найти убийцу.

Качество: BDRip-AVC
Формат: MKV

Видео: 1024x428 (2.40:1), 23,976 fps, x264 ~1 794 kbps avg, 0.171 bit/pixel
Аудио#1: 48 kHz, AC3 Dolby Digital, 3/2 (L,C,R,l,r) + LFE ch, ~448.00 kbps avg | RUS (Netflix)
Аудио#2: 48 kHz, AC3 Dolby Digital, 3/2 (L,C,R,l,r) + LFE ch, ~448.00 kbps avg | RUS (Яроцкий)
Аудио#3: 48 kHz, AC3 Dolby Digital, 3/2 (L,C,R,l,r) + LFE ch, ~448.00 kbps avg | ENG
скриншот  скриншот  скриншот  скриншот  скриншот  

Общее
Уникальный идентификатор : 146150696589102412627002906613583859019 (0x6DF399ACF5996D16656D0EABE7964D4B)
Полное имя : F:OlLanDGroupShaft.2019.BDRip(AVC).OllanDGroup.mkv
Формат : Matroska
Версия формата : Version 4 / Version 2
Размер файла : 2,45 Гбайт
Продолжительность : 1 ч. 52 м.
Общий поток : 3127 Кбит/сек
Название фильма : Shaft 2019 #TorpedoUK#
Дата кодирования : UTC 2019-09-20 13:30:04
Программа кодирования : mkvmerge v29.0.0 ('Like It Or Not') 64-bit
Библиотека кодирования : libebml v1.3.6 + libmatroska v1.4.9

Видео
Идентификатор : 1
Формат : AVC
Формат/Информация : Advanced Video Codec
Профиль формата : High@L4.1
Параметр CABAC формата : Да
Параметр ReFrames формата : 10 кадров
Идентификатор кодека : V_MPEG4/ISO/AVC
Продолжительность : 1 ч. 51 м.
Битрейт : 1794 Кбит/сек
Ширина : 1024 пикселя
Высота : 428 пикселей
Соотношение сторон : 2,40:1
Режим частоты кадров : Постоянный
Частота кадров : 23,976 (24000/1001) кадра/сек
Цветовое пространство : YUV
Субдискретизация насыщенности : 4:2:0
Битовая глубина : 8 бит
Тип развёртки : Прогрессивная
Бит/(Пиксели*Кадры) : 0.171
Размер потока : 1,40 Гбайт (57%)
Библиотека кодирования : x264 core 146 r2538 121396c
Настройки программы : cabac=1 / ref=10 / deblock=1:-3:-3 / analyse=0x3:0x113 / me=umh / subme=11 / psy=1 / psy_rd=1.00:0.03 / mixed_ref=1 / me_range=48 / chroma_me=1 / trellis=2 / 8x8dct=1 / cqm=0 / deadzone=21,11 / fast_pskip=1 / chroma_qp_offset=-6 / threads=6 / lookahead_threads=1 / sliced_threads=0 / nr=0 / decimate=1 / interlaced=0 / bluray_compat=0 / constrained_intra=0 / bframes=11 / b_pyramid=2 / b_adapt=2 / b_bias=0 / direct=3 / weightb=1 / open_gop=0 / weightp=2 / keyint=240 / keyint_min=23 / scenecut=40 / intra_refresh=0 / rc_lookahead=40 / rc=2pass / mbtree=0 / bitrate=1794 / ratetol=1.0 / qcomp=0.60 / qpmin=0 / qpmax=69 / qpstep=4 / cplxblur=20.0 / qblur=0.5 / vbv_maxrate=50000 / vbv_bufsize=62500 / nal_hrd=none / filler=0 / ip_ratio=1.40 / pb_ratio=1.30 / aq=1:1.00
Язык : English
Default : Да
Forced : Нет

Аудио #1
Идентификатор : 2
Формат : AC-3
Формат/Информация : Audio Coding 3
Расширение режима : CM (complete main)
Параметр Endianness формата : Big
Идентификатор кодека : A_AC3
Продолжительность : 1 ч. 51 м.
Вид битрейта : Постоянный
Битрейт : 448 Кбит/сек
Каналы : 6 каналов
Расположение каналов : Front: L C R, Side: L R, LFE
Частота : 48,0 КГц
Частота кадров : 31,250 кадров/сек (1536 spf)
Битовая глубина : 16 бит
Метод сжатия : С потерями
Размер потока : 357 Мбайт (14%)
Заголовок : DUB [Netflix]
Язык : Russian
Default : Да
Forced : Нет

Аудио #2
Идентификатор : 3
Формат : AC-3
Формат/Информация : Audio Coding 3
Расширение режима : CM (complete main)
Параметр Endianness формата : Big
Идентификатор кодека : A_AC3
Продолжительность : 1 ч. 52 м.
Вид битрейта : Постоянный
Битрейт : 448 Кбит/сек
Каналы : 6 каналов
Расположение каналов : Front: L C R, Side: L R, LFE
Частота : 48,0 КГц
Частота кадров : 31,250 кадров/сек (1536 spf)
Битовая глубина : 16 бит
Метод сжатия : С потерями
Размер потока : 359 Мбайт (14%)
Заголовок : AVO [Kyberpank]
Язык : Russian
Default : Нет
Forced : Нет

Аудио #3
Идентификатор : 4
Формат : AC-3
Формат/Информация : Audio Coding 3
Расширение режима : CM (complete main)
Параметр Endianness формата : Big
Идентификатор кодека : A_AC3
Продолжительность : 1 ч. 51 м.
Вид битрейта : Постоянный
Битрейт : 448 Кбит/сек
Каналы : 6 каналов
Расположение каналов : Front: L C R, Side: L R, LFE
Частота : 48,0 КГц
Частота кадров : 31,250 кадров/сек (1536 spf)
Битовая глубина : 16 бит
Метод сжатия : С потерями
Размер потока : 357 Мбайт (14%)
Заголовок : [Original]
Язык : English
Default : Нет
Forced : Нет

Текст #1
Идентификатор : 5
Формат : UTF-8
Идентификатор кодека : S_TEXT/UTF8
Идентификатор кодека/Информация : UTF-8 Plain Text
Продолжительность : 1 ч. 50 м.
Битрейт : 3 бит/сек
Count of elements : 47
Размер потока : 2,55 Кбайт (0%)
Заголовок : Forced
Язык : Russian
Default : Да
Forced : Нет

Текст #2
Идентификатор : 6
Формат : UTF-8
Идентификатор кодека : S_TEXT/UTF8
Идентификатор кодека/Информация : UTF-8 Plain Text
Продолжительность : 1 ч. 50 м.
Битрейт : 119 бит/сек
Count of elements : 1990
Размер потока : 96,9 Кбайт (0%)
Заголовок : Full
Язык : Russian
Default : Нет
Forced : Нет

Текст #3
Идентификатор : 7
Формат : UTF-8
Идентификатор кодека : S_TEXT/UTF8
Идентификатор кодека/Информация : UTF-8 Plain Text
Продолжительность : 1 ч. 51 м.
Битрейт : 92 бит/сек
Count of elements : 2210
Размер потока : 75,3 Кбайт (0%)
Заголовок : Full
Язык : English
Default : Нет
Forced : Нет

Текст #4
Идентификатор : 8
Формат : UTF-8
Идентификатор кодека : S_TEXT/UTF8
Идентификатор кодека/Информация : UTF-8 Plain Text
Продолжительность : 1 ч. 51 м.
Битрейт : 102 бит/сек
Count of elements : 2515
Размер потока : 83,2 Кбайт (0%)
Заголовок : SDH
Язык : English
Default : Нет
Forced : Нет

Меню
00:00:00.000 : en:00:00:00.000
00:08:02.774 : en:00:08:02.774
00:17:38.557 : en:00:17:38.557
00:27:55.924 : en:00:27:55.924
00:35:34.466 : en:00:35:34.466
00:41:22.438 : en:00:41:22.438
00:49:58.996 : en:00:49:58.996
00:59:05.208 : en:00:59:05.208
01:08:15.883 : en:01:08:15.883
01:17:30.563 : en:01:17:30.563
01:23:12.196 : en:01:23:12.196
01:33:29.270 : en:01:33:29.270
01:43:14.021 : en:01:43:14.021
01:46:54.742 : en:01:46:54.742

pb.wtf



Скачать Шафт через торрент https://i86.fastpic.ru/big/2019/0826/05/a14ddc7a8f620f35f4b5706d99b61905.jpg Скачать фильм Шафт через торрент бесплантно в хорошем качестве Описание: Джон Шафт III — специалист по кибербезопасности в ФБР, не привыкший решать проблемы грубой силой. Он предпочитает полагаться на ... 9.6 10 9
Торрент: Зарегистрирован [2019-09-21 09:04] · скачан: 348 раз
Статус: √ проверено
Размер: 2.45 GB
Как cкачать? Как скачать Шафт через торрент | qTorrent

% Раздел Тема Автор DL S | L
Фильмы 2019 [DVDrip, WEB-DLRip, HDrip] (DUB, MVO) [ 1.46 GB ] Шафт / Shaft [2019 BDRip] - [NETFLiX] Twi7ter Скачать
39 | 8
Фильмы 2019 [DVDrip, WEB-DLRip, HDrip] (DUB, MVO) [ 2.18 GB ] Шафт / Shaft [2019 BDRip] - [NETFLiX] AVO [Яроцкий] Twi7ter Скачать
49 | 7
Ultra HD (UHD: 2K, 4K, 8K) — видео сверхвысокой чёткости [ 16 GB ] Шафт / Shaft [2019 UHD BDRip 2160p] DUB [Netflix] + +AVO [Яроцкий ] bober100 Скачать
6 | 1
Ultra HD (UHD: 2K, 4K, 8K) — видео сверхвысокой чёткости [ 30.11 GB ] Шафт / Shaft [2019 UHD BDRip 2160p] [SDR] DUB [Netflix] + +AVO [Яроцкий ] bober100 Скачать
1 | 0
Ultra HD (UHD: 2K, 4K, 8K) — видео сверхвысокой чёткости [ 47.73 GB ] Шафт / Shaft [2019 UHD BDRemux 2160p] DUB [Netflix] + +AVO [Яроцкий ] bober100 Скачать
2 | 0
Фильмы до 2000 г. [ 1.46 GB ] Шафт / Шафт / Shaft [2000 BDRip] DUB [Netflix] bober100 Скачать
2 | 0
Фильмы с авторской озвучкой [ 1.46 GB ] Шафт / Shaft [2019 BDRip] AVO [Яроцкий] - ExKinoRay Enigma2010 Скачать
20 | 2

28-11-2019 20:33  

Отключить всю рекламу на сайте

    Дорогой пользователь! Огромная просьба, поблагодарите релизера, оцените раздачу и оставьте свои комментарий, если Вы скачали Шафт через торрент бесплатно! Внесите свою лепту в развитие PiratBit!
    Комментировать посты могут только пользователи прошедшие не сложную регистрацию
    Показать сообщения:    

    Шафт через торрент
    Скачать бесплатно Шафт
    Шафт скачать торрент
    Шафт смотреть онлайн
    Cкачать фильм Шафт бесплатно
    Шафт скачать торрент в хорошем качестве
    Шафт смотреть онлайн бесплатно в хорошем качестве


    Вы не можете начинать темы
    Вы не можете отвечать на сообщения
    Вы не можете редактировать свои сообщения
    Вы не можете удалять свои сообщения
    Вы не можете голосовать в опросах
    Вы не можете прикреплять файлы к сообщениям
    Вы можете скачивать файлы