новый адрес
Ссылка на приватное зеркало всего за 1$. Внимание количество ограничено!!!

iTunes

1+1

iTunes

мы

WEB-DL

1

iTunes

Чернобыль

iTunes

Ральф против интернета

Лицензия

ПШазам

Лицензия

Оно 2

Лицензия

30
pack

Вам бонус

ВАЖНО

!!Акция!!

Alien_RageХит недели

RePack

Resident Evil 21

ИГРА 18+

pack

RePack

jed

!!Акция!!

Alien_Rage

RePack

fifa19

RePack

Assassins Creed: Odyssey

RePack

NEED FOR SPEED™ PAYBACK

3 сезон

9 сезон

Бесстыжие 9 сезон

Все сериалы

все сериалы на PB.wtf

RePack

FAR CRY 5
Ребята, катастрофически не хватает 1900р. для оплаты серверов за Октябрь (всвязи с блокировками трафик упал в 3 раза), 1-2р., выручайте.
  

Любовь со взломом / Проникновение и бегство / Breaking & Exiting (Питер Фачинелли) [2018 г., комедия, HDRip, Дубляж "iTunes"] pb.wtf

Любовь со взломом через торрент pb.wtf

Раздают: 3 [ 0 KB/s ]
Размер: 704 MB | Добавлен: 2 мес. 19 д. назад | Торрент скачан:97 раз
Скачать  

21-09-2019 18:22 Любовь со взломом Скачать торрент  

Любовь со взломом / Проникновение и бегство/ Breaking & Exiting
Год выпуска: 2018
Страна: США / Kali Pictures, Rated Elle Productions
Жанр: комедия
Продолжительность: 01:18:30
Перевод: Дубляж (iTunes)

Режиссер: Питер Фачинелли

rating

В ролях: Майло Гибсон, Джордан Хинсон, Адам Хубер, Жоаки де Алмейда, Жюстин Уачсбергер, Джеймс Кайсон Ли, Лили Энн Харрисон, Сесиль Кубило, Колин Фергюсон, Джон Хинсон

Описание: Гарри, харизматичный вор-домушник, попадает в неловкую ситуацию, когда во время очередного ограбления сталкивается в ванной с Дейзи - хозяйкой дома, пытающейся покончить жизнь самоубийством. Сначала Гарри решает забрать награбленное и убежать, но что-то останавливает его, и он возвращается, чтобы спасти Дейзи жизнь. Казалось бы, что нужно девушке для счастья? Шикарный дом с бассейном, прекрасная внешность - вроде бы жизнь удалась. Что могло заставить человека пойти на самоубийство?

Качество: HDRip
Формат: AVI
Видео кодек: DivX
Аудио кодек: MP3
Видео: 672x280 (2.40:1), 23.976 fps, DivX Codec 4.x ~1116 kbps avg, 0.25 bit/pixel
Аудио: 48 kHz, MPEG Layer 3, 2 ch, ~128.00 kbps avg
скриншот   скриншот   скриншот   скриншот  

Общее
Полное имя : F:\ФИЛЬМЫ\Любовь со взломом.2018.D.HDRip.avi
Формат : AVI
Формат/Информация : Audio Video Interleave
Размер файла : 704 Мбайт
Продолжительность : 1 ч. 18 м.
Общий поток : 1254 Кбит/сек
Программа кодирования : VirtualDubMod 1.5.10.3 | www.virtualdub-fr.org || (build 2550/release)
Библиотека кодирования : VirtualDubMod build 2550/release

Видео
Идентификатор : 0
Формат : MPEG-4 Visual
Профиль формата : Advanced Simple@L5
Настройки формата : BVOP3 / GMC3 / QPel
Параметр BVOP формата : 3
Параметр QPel формата : Да
Параметр GMC формата : 3 точки перехода
Параметр матрицы формата : Default (MPEG)
Идентификатор кодека : DIVX
Идентификатор кодека/Информация : Project Mayo
Идентификатор кодека/Подсказка : DivX 4
Продолжительность : 1 ч. 18 м.
Битрейт : 1117 Кбит/сек
Ширина : 672 пикселя
Высота : 280 пикселей
Соотношение сторон : 2,40:1
Частота кадров : 23,976 (24000/1001) кадра/сек
Цветовое пространство : YUV
Субдискретизация насыщенности : 4:2:0
Битовая глубина : 8 бит
Тип развёртки : Прогрессивная
Метод сжатия : С потерями
Бит/(Пиксели*Кадры) : 0.248
Размер потока : 627 Мбайт (89%)
Библиотека кодирования : XviD 1.2.1 (UTC 2008-12-04)

Аудио
Идентификатор : 1
Формат : MPEG Audio
Версия формата : Version 1
Профиль формата : Layer 3
Настройки формата : Joint stereo
Идентификатор кодека : 55
Идентификатор кодека/Подсказка : MP3
Продолжительность : 1 ч. 18 м.
Вид битрейта : Постоянный
Битрейт : 128 Кбит/сек
Каналы : 2 канала
Частота : 48,0 КГц
Частота кадров : 41,667 кадра/сек (1152 SPF)
Метод сжатия : С потерями
Размер потока : 71,9 Мбайт (10%)
Выравнивание : Соединение по промежуткам
Продолжительность промежутка : 42 мс. (1,00 видеокадр)
Время предзагрузки промежутка : 504 мс.
Библиотека кодирования : LAME3.99r
Настройки программы : -m j -V 4 -q 2 -lowpass 17 -b 128

pb.wtf



Скачать Любовь со взломом через торрент http://pic1.kartinco.top/images/12/48tr9.jpg Скачать фильм Любовь со взломом через торрент бесплантно в хорошем качестве Описание: Гарри, харизматичный вор-домушник, попадает в неловкую ситуацию, когда во время очередного ограбления сталкивается в ванной с ... 10 10 3
Торрент: Зарегистрирован [2019-09-21 18:22] · скачан: 97 раз
Статус: √ проверено
Размер: 704 MB
Как cкачать? Как скачать Любовь со взломом через торрент | qTorrent

28-11-2019 20:33  

Отключить всю рекламу на сайте

21-09-2019 18:30 Любовь со взломом Скачать торрент  

2918)) Фильм из будущего pb.wtf



21-09-2019 19:42 Любовь со взломом Скачать торрент  

faketory12 писал(а):

2918)) Фильм из будущего

Я тоже прихринел))) суббота сегодняpb.wtf



21-09-2019 20:03 Любовь со взломом Скачать торрент  

нихрена себе фильм из будущегоpb.wtf



21-09-2019 20:27 Любовь со взломом Скачать торрент  

всегда подозревал,что машина времени существует.но на этот раз наши видеопираты явно перестарались pb.wtf



21-09-2019 20:38 Любовь со взломом Скачать торрент  

хоть узнаем какими видео и аудиокодеками будут пользоваться через столько столетийpb.wtf



22-09-2019 10:28 Любовь со взломом Скачать торрент  

Леонид Ильич писал(а):

хоть узнаем какими видео и аудиокодеками будут пользоваться через столько столетий

разрешение 672x280 - в будущем кино на часах смотрят
либо это разрешение в "K" !!! сейчас у нас 4K и есть даже 8K, а в будущем будет 280K и даже 672K pb.wtf



    Дорогой пользователь! Огромная просьба, поблагодарите релизера, оцените раздачу и оставьте свои комментарий, если Вы скачали Любовь со взломом через торрент бесплатно! Внесите свою лепту в развитие PiratBit!
    Комментировать посты могут только пользователи прошедшие не сложную регистрацию
    Показать сообщения:    

    Любовь со взломом через торрент
    Скачать бесплатно Любовь со взломом
    Любовь со взломом скачать торрент
    Любовь со взломом смотреть онлайн
    Cкачать фильм Любовь со взломом бесплатно
    Любовь со взломом скачать торрент в хорошем качестве
    Любовь со взломом смотреть онлайн бесплатно в хорошем качестве


    Вы не можете начинать темы
    Вы не можете отвечать на сообщения
    Вы не можете редактировать свои сообщения
    Вы не можете удалять свои сообщения
    Вы не можете голосовать в опросах
    Вы не можете прикреплять файлы к сообщениям
    Вы можете скачивать файлы