Ссылка на приватное зеркало нашего сайта всего за 1$. Внимание количество ограничено!!!

2 сезон

iTunes

1 сезон

1

iTunes

iTunes

iTunes

1 сезон

RePack

30

ИГРА 18+

pack

ВАЖНО

!!Акция!!

Alien_RageХит недели

RePack

MK11
pack

Забери бонус

RePack

jed

!!Акция!!

Alien_Rage

RePack

fifa19

RePack

Assassins Creed: Odyssey

RePack

NEED FOR SPEED™ PAYBACK

4 сезон

9 сезон

Бесстыжие 9 сезон

Все сериалы

все сериалы на PB.wtf

RePack

FAR CRY 5
  

Женщина на войне / Kona fer í stríð / Woman At War (Бенедикт Эрлингссон) [2018, Драма, комедия, BDRip 1080p] AVO [А.Важенин [BadBajo] pb.wtf

Женщина на войне через торрент pb.wtf

Размер: 7.93 GB | Добавлен: 1 год 1 мес. назад | Торрент скачан:9 раз
Скачать  

21-09-2019 18:29 Женщина на войне Скачать торрент  

Женщина на войне / Kona fer í stríð / Woman At War
Год выпуска: 2018
Страна: Исландия, Франция, Украина
Жанр: Драма, комедия
Продолжительность: 01:40:26
Перевод: Авторский (одноголосый) |
Субтитры: Английские

Режиссер: Бенедикт Эрлингссон

rating


В ролях: Халльдоура Гейрхардсдоуттир, Йохан Сигуроарсон, Хуан Камилло Роман Эстрада, Йорундур Рагнарссон, Сольвейг Арнарсдоттир, Гуннар Берси Бьёрнссон, Хельга Брага Йонсдоттир, Шарлотта Бювинг, Ирина Данилейко, Вала Кристин Эйриксдоттир

Описание: 50-летняя Халла объявляет войну местному алюминиевому заводу, который угрожает экологии. Она рискует всем, чтобы защитить исландские предгорья, но ситуация меняется, когда в её жизни появляется девочка-сирота.

Качество: BDRip 1080p
Формат: MKV

Видео: 1920х808, ~8579Kbps, 23.976 (24000/1001) FPS
Аудио#1: Русский: DTS, 6 ch, 1 509 Kbps (BadBajo)
Аудио#2: Русский: AC3, 6 ch, 448 Kbps (BadBajo)
Аудио#3: Исландский: DTS, 6 ch, 1 509 Kbps
скриншот  скриншот  скриншот  скриншот  скриншот  

Общее
Уникальный идентификатор : 57664295532520868486927347737865386163 (0x2B61BD45F6A56DDEB0BE1C82391278B3)
Полное имя : C:\woman.at.war.2018.limited.1080p.bluray.x264_rus_BadBajo.mkv
Формат : Matroska
Версия формата : Version 4
Размер файла : 7,93 Гбайт
Продолжительность : 1 ч. 40 м.
Общий поток : 11,3 Мбит/сек
Название фильма : woman.at.war.2018.limited.1080p.bluray.x264_rus_BadBajo
Дата кодирования : UTC 2019-09-21 12:33:14
Программа кодирования : mkvmerge v33.1.0 ('Primrose') 64-bit
Библиотека кодирования : libebml v1.3.7 + libmatroska v1.5.0
Обложка : Yes
Attachments : cover.jpg / small_cover.jpg

Видео
Идентификатор : 1
Формат : AVC
Формат/Информация : Advanced Video Codec
Профиль формата : High@L4.1
Настройки формата : CABAC / 5 Ref Frames
Параметр CABAC формата : Да
Параметр RefFrames формата : 5 кадров
Идентификатор кодека : V_MPEG4/ISO/AVC
Продолжительность : 1 ч. 40 м.
Битрейт : 8579 Кбит/сек
Ширина : 1920 пикселей
Высота : 808 пикселей
Соотношение сторон : 2,40:1
Режим частоты кадров : Постоянный
Частота кадров : 24,000 кадра/сек
Цветовое пространство : YUV
Субдискретизация насыщенности : 4:2:0
Битовая глубина : 8 бит
Тип развёртки : Прогрессивная
Бит/(Пиксели*Кадры) : 0.230
Размер потока : 5,86 Гбайт (74%)
Библиотека кодирования : x264 core 158 r2984 3759fcb
Настройки программы : cabac=1 / ref=5 / deblock=1:-3:-3 / analyse=0x3:0x133 / me=umh / subme=9 / psy=1 / psy_rd=1.00:0.00 / mixed_ref=1 / me_range=24 / chroma_me=1 / trellis=1 / 8x8dct=1 / cqm=0 / deadzone=21,11 / fast_pskip=0 / chroma_qp_offset=-2 / threads=24 / lookahead_threads=4 / sliced_threads=0 / nr=0 / decimate=1 / interlaced=0 / bluray_compat=0 / constrained_intra=0 / bframes=8 / b_pyramid=2 / b_adapt=2 / b_bias=0 / direct=3 / weightb=1 / open_gop=0 / weightp=2 / keyint=250 / keyint_min=24 / scenecut=40 / intra_refresh=0 / rc_lookahead=60 / rc=2pass / mbtree=1 / bitrate=8579 / ratetol=1.0 / qcomp=0.60 / qpmin=0 / qpmax=69 / qpstep=4 / cplxblur=20.0 / qblur=0.5 / vbv_maxrate=62500 / vbv_bufsize=78125 / nal_hrd=none / filler=0 / ip_ratio=1.40 / aq=1:1.00
Default : Да
Forced : Нет

Аудио #1
Идентификатор : 2
Формат : DTS
Формат/Информация : Digital Theater Systems
Идентификатор кодека : A_DTS
Продолжительность : 1 ч. 40 м.
Вид битрейта : Постоянный
Битрейт : 1510 Кбит/сек
Каналы : 6 каналов
ChannelLayout : C L R Ls Rs LFE
Частота : 48,0 КГц
Частота кадров : 93,750 кадра/сек (512 SPF)
Битовая глубина : 24 бит
Метод сжатия : С потерями
Размер потока : 1,06 Гбайт (13%)
Заголовок : woman.at.war.2018.DTS_rus_BadBajo
Язык : Russian
Default : Да
Forced : Да

Аудио #2
Идентификатор : 3
Формат : AC-3
Формат/Информация : Audio Coding 3
Коммерческое название : Dolby Digital
Идентификатор кодека : A_AC3
Продолжительность : 1 ч. 40 м.
Вид битрейта : Постоянный
Битрейт : 448 Кбит/сек
Каналы : 6 каналов
ChannelLayout : L R C LFE Ls Rs
Частота : 48,0 КГц
Частота кадров : 31,250 кадров/сек (1536 SPF)
Битовая глубина : 16 бит
Метод сжатия : С потерями
Размер потока : 322 Мбайт (4%)
Заголовок : woman.at.war.2018.AC3_rus_BadBajo
Язык : Russian
ServiceKind/String : Complete Main
Default : Нет
Forced : Нет

Аудио #3
Идентификатор : 4
Формат : DTS
Формат/Информация : Digital Theater Systems
Идентификатор кодека : A_DTS
Продолжительность : 1 ч. 40 м.
Вид битрейта : Постоянный
Битрейт : 768 Кбит/сек
Каналы : 6 каналов
ChannelLayout : C L R Ls Rs LFE
Частота : 48,0 КГц
Частота кадров : 93,750 кадра/сек (512 SPF)
Битовая глубина : 24 бит
Метод сжатия : С потерями
Размер потока : 552 Мбайт (7%)
Язык : Icelandic
Default : Нет
Forced : Нет

Текст
Идентификатор : 5
Формат : UTF-8
Идентификатор кодека : S_TEXT/UTF8
Идентификатор кодека/Информация : UTF-8 Plain Text
Язык : English
Default : Нет
Forced : Нет

Меню
00:00:00.000 : en:Chapter 01
00:18:12.083 : en:Chapter 02
00:31:27.208 : en:Chapter 03
00:42:59.167 : en:Chapter 04
00:52:32.667 : en:Chapter 05
00:59:22.542 : en:Chapter 06
01:13:06.125 : en:Chapter 07
01:23:52.458 : en:Chapter 08

pb.wtf



Скачать Женщина на войне через торрент https://b.radikal.ru/b30/1909/f3/9a7fed2bb094.jpg Скачать фильм Женщина на войне через торрент бесплантно в хорошем качестве Описание: 50-летняя Халла объявляет войну местному алюминиевому заводу, который угрожает экологии. Она рискует всем, чтобы защитить ... 9.3 10 4
Торрент: Зарегистрирован [2019-09-21 18:29] · скачан: 9 раз
Статус: √ проверено
Размер: 7.93 GB
Как cкачать? Как скачать Женщина на войне через торрент | qTorrent

% Раздел Тема Автор DL S | L
T Фильмы (мультфильмы) cо спонсором показа (Новинки AVI/MKV) [ 4.02 GB ] Женщина на войне / Kona fer í stríð / Woman At War [2018 WEB-DL 720p] MVO ["Синема УС"] bober100 Скачать
1 | 0
T Фильмы (мультфильмы) cо спонсором показа (Новинки AVI/MKV) [ 1.37 GB ] Женщина на войне / Kona fer í stríð / Woman At War [2018 WEB-DLRip] MVO ["Синема УС"] bober100 Скачать
1 | 0

28-11-2019 20:33  

Отключить всю рекламу на сайте

    Дорогой пользователь! Огромная просьба, поблагодарите релизера, оцените раздачу и оставьте свои комментарий, если Вы скачали Женщина на войне через торрент бесплатно! Внесите свою лепту в развитие PiratBit!
    Комментировать посты могут только пользователи прошедшие не сложную регистрацию
    Показать сообщения:    

    Женщина на войне через торрент
    Скачать бесплатно Женщина на войне
    Женщина на войне скачать торрент
    Женщина на войне смотреть онлайн
    Cкачать фильм Женщина на войне бесплатно
    Женщина на войне скачать торрент в хорошем качестве
    Женщина на войне смотреть онлайн бесплатно в хорошем качестве


    Вы не можете начинать темы
    Вы не можете отвечать на сообщения
    Вы не можете редактировать свои сообщения
    Вы не можете удалять свои сообщения
    Вы не можете голосовать в опросах
    Вы не можете прикреплять файлы к сообщениям
    Вы можете скачивать файлы