новый адрес пиратбит piratbit
Мега распродажа FORZA HORIZON 4 ULTIMATE+ВСЕ DLC+ОНЛАЙН всего за 499р. 349 руб. (супер цена). Внимание количество ограничено!!!

iTunes

1+1

iTunes

мы

iTunes

1

iTunes

Чернобыль

iTunes

Ральф против интернета

Лицензия

ПШазам

Лицензия

Игра престолов

Лицензия

30
pack

ВАЖНО

!!Акция!!

Alien_RageХит недели

RePack

Resident Evil 21

ИГРА 18+

pack

RePack

Metro:Exodus

!!Акция!!

Alien_Rage

RePack

fifa19

RePack

Assassins Creed: Odyssey

RePack

NEED FOR SPEED™ PAYBACK

3 сезон

9 сезон

Бесстыжие 9 сезон

Все сериалы

все сериалы на PB.wtf

RePack

FAR CRY 5
Ребята, катастрофически не хватает 1900р. для оплаты серверов за Октябрь (всвязи с блокировками трафик упал в 3 раза), 1-2р., выручайте.
  

Американская история ужасов / American Horror Story / Сезон: 9 / Серия: 1-8 из 10 (Брэдли Букер, Альфонсо Гомес-Рехон, Майкл Аппендаль) [2019, Ужасы, триллер, драма, WEB-DL 1080p] MVO [LostFilm] pb.wtf

Американская история ужасов через торрент pb.wtf

Раздают: 1 [ 71 KB/s ] Качают: 1 [ 0 KB/s ]
Размер: 20.45 GB | Добавлен: 4 д. назад | Торрент скачан:3 раза
Скачать  

22-09-2019 05:26 Американская история ужасов Скачать торрент  

Американская история ужасов | American Horror Story • Год выпуска: 2019
• Страна: США
• Жанр: Ужасы, триллер, драма
• Продолжительность: ~00:45:00
• Перевод: Профессиональный (многоголосый закадровый) | LostFilm
• Субтитры: Русские (Full |«FOCS»|*, английские (Full, SDH)

• Режиссёр: Брэдли Букер, Альфонсо Гомес-Рехон, Майкл Аппендаль

В ролях: Эмма Робертс, Билли Лурд, Лесли Гроссман, Коди Ферн, Мэттью Моррисон, Гас Кенуорти, Джон Кэрролл Линч, Анджелика Росс, Зэк Вилла и др.

Описание: После призраков, клоунов и ведьм настал черёд слэшеров 1980-х, где незадачливых подростков убивает незнакомец с ножом и в маске. По всем правилам жанра истории об убийце полушёпотом пересказывают вокруг костра, в деле замешаны прошлые преступления и не самая надёжная психиатрическая больница.



• Качество: WEB-DL 1080p
• Формат: MKV

• Видео: AVC, 1920x1080 (16:9), 23.976 fps, ~ 8800 Kbps
• Аудио №1: AC3, 48,0 kHz, 6 ch, 640 kbps | LostFilm
• Аудио №2: AC3, 48,0 kHz, 6 ch, 640 kbps | Original


• Реклама: Отсутствует| Чистый видеоряд (без заставки и логотипа)!

• Исходник: American.Horror.Story.S09.1080p.AMZN.WEB-DL.DDP5.1.x264-AJP69
01. Camp Redwood / Лагерь "Рэдвуд"
Аудио №1 получено наложением выделенных голосов от «LostFilm» на центр оригинального EAC3
Постер и работа со звуком: itunestv@eniahd
Complete name : D:\American_Horror_Story_(s09)_LostFilm_1080p\American.Horror.Story.2019.S09E01.Camp.Redwood.1080p.AMZN.WEB-DL.DD5.1.x264-AJP69_EniaHD.mkv
Format : Matroska
Format version : Version 2
File size : 3.47 GiB
Duration : 48 min 10 s
Overall bit rate : 10.3 Mb/s
Encoded date : UTC 2019-09-22 04:43:16
Writing application : mkvmerge v4.9.1 ('Ich will') сборка от Jul 11 2011 23:53:15
Writing library : libebml v1.2.1 + libmatroska v1.1.1

Video
ID : 1
Format : AVC
Format/Info : Advanced Video Codec
Format profile : High@L4
Format settings : CABAC / 4 Ref Frames
Format settings, CABAC : Yes
Format settings, Reference : 4 frames
Codec ID : V_MPEG4/ISO/AVC
Duration : 48 min 10 s
Bit rate mode : Constant
Bit rate : 8 812 kb/s
Nominal bit rate : 10 000 kb/s
Width : 1 920 pixels
Height : 1 080 pixels
Display aspect ratio : 16:9
Frame rate mode : Constant
Frame rate : 23.976 (24000/1001) FPS
Color space : YUV
Chroma subsampling : 4:2:0
Bit depth : 8 bits
Scan type : Progressive
Bits/(Pixel*Frame) : 0.177
Stream size : 2.97 GiB (86%)
Title : Release by EniaHD
Language : English
Default : Yes
Forced : No
Color range : Limited
Color primaries : BT.709
Transfer characteristics : BT.709
Matrix coefficients : BT.709

Audio #1
ID : 2
Format : AC-3
Format/Info : Audio Coding 3
Commercial name : Dolby Digital
Codec ID : A_AC3
Duration : 48 min 10 s
Bit rate mode : Constant
Bit rate : 640 kb/s
Channel(s) : 6 channels
Channel layout : L R C LFE Ls Rs
Sampling rate : 48.0 kHz
Frame rate : 31.250 FPS (1536 SPF)
Bit depth : 16 bits
Compression mode : Lossy
Stream size : 221 MiB (6%)
Title : LostFilm
Language : Russian
Service kind : Complete Main
Default : Yes
Forced : No

Audio #2
ID : 3
Format : AC-3
Format/Info : Audio Coding 3
Commercial name : Dolby Digital
Codec ID : A_AC3
Duration : 48 min 10 s
Bit rate mode : Constant
Bit rate : 640 kb/s
Channel(s) : 6 channels
Channel layout : L R C LFE Ls Rs
Sampling rate : 48.0 kHz
Frame rate : 31.250 FPS (1536 SPF)
Bit depth : 16 bits
Compression mode : Lossy
Stream size : 221 MiB (6%)
Language : English
Service kind : Complete Main
Default : No
Forced : No

Text #1
ID : 4
Format : UTF-8
Codec ID : S_TEXT/UTF8
Codec ID/Info : UTF-8 Plain Text
Title : Full
Language : English
Default : No
Forced : No

Text #2
ID : 5
Format : UTF-8
Codec ID : S_TEXT/UTF8
Codec ID/Info : UTF-8 Plain Text
Title : SDH
Language : English
Default : No
Forced : No
При каждом добавлении создаётся новый торрент. Чтобы начать докачку новой серии, пользователям необходимо сделать следующее:
- остановить скачивание;
- удалить старый торрент у себя из клиента (старые серии удалять не надо);
- скачать новый торрент и запустить его у себя в клиенте вместо старого, при этом указать клиенту путь в старую папку, куда и должно происходить скачивание новых серий.
pb.wtf



Скачать Американская история ужасов через торрент https://c.radikal.ru/c15/1909/7e/092860d0591d.png Скачать фильм Американская история ужасов через торрент бесплантно в хорошем качестве Описание: После призраков, клоунов и ведьм настал черёд слэшеров 1980-х, где незадачливых подростков убивает незнакомец с ножом и в маске. ... 10 10 5
Торрент: Зарегистрирован [2019-11-09 23:14] · скачан: 3 раз
Статус: √ проверено
Размер: 20.45 GB
Как cкачать? Как скачать Американская история ужасов через торрент | qTorrent

% Раздел Тема Автор DL S | L
Американская история ужасов [ 10.55 GB ] Американская история ужасов / American Horror Story / Сезон: 9 / Серии: 1-8 из 10 [2019 WEB-DL 720p] [MVO] killermax2013 Скачать
1 | 1
Американская история ужасов [ 11.57 GB ] Американская история ужасов / American Horror Story / Сезон: 9 / Серии: 1-8 из 10 [2019 WEB-DL 720p] MVO [NewStudio] bober100 Скачать
2 | 0
Американская история ужасов [ 19.52 GB ] Американская история ужасов / American Horror Story / Сезон: 9 / Серии: 1-8 из 10 [2019 WEB-DL 1080p] [MVO] killermax2013 Скачать
1 | 0
Американская история ужасов [ 10.73 GB ] Американская история ужасов / American Horror Story / Сезон: 9 / Серии: 1-8 из 10 [2019 WEB-DL 720p] MVO [LostFilm] bober100 Скачать
4 | 1
Американская история ужасов [ 19.27 GB ] Американская история ужасов / American Horror Story / Сезон: 9 / Серии: 1-8 из 10 [2019 WEB-DL 1080p] MVO [Jaskier] bober100 Скачать
1 | 0
Американская история ужасов [ 19.42 GB ] Американская история ужасов / American Horror Story / Сезон: 9 / Серии: 1-8 из 10 [2019 WEB-DL 1080p] MVO [Amedia / Novamedia] bober100 Скачать
2 | 5


Последний раз редактировалось: bober100 (2019-11-09 23:14), всего редактировалось 1 раз


>> Регистрируемся здесь <<






Отзывы и комментарии о схеме читаем и пишем здесь: ---> Отзывы и комментарии о схеме

Новые благодарочки в телеграм довольных пользователей:
скриншот   скриншот   скриншот   скриншот   скриншот

02-11-2019 14:34 Американская история ужасов Скачать торрент  

Как сезон?pb.wtf



    Дорогой пользователь! Огромная просьба, поблагодарите релизера, оцените раздачу и оставьте свои комментарий, если Вы скачали Американская история ужасов через торрент бесплатно! Внесите свою лепту в развитие PiratBit!
    Комментировать посты могут только пользователи прошедшие не сложную регистрацию
    Показать сообщения:    

    Американская история ужасов через торрент
    Скачать бесплатно Американская история ужасов
    Американская история ужасов скачать торрент
    Американская история ужасов смотреть онлайн
    Cкачать фильм Американская история ужасов бесплатно
    Американская история ужасов скачать торрент в хорошем качестве
    Американская история ужасов смотреть онлайн бесплатно в хорошем качестве


    Вы не можете начинать темы
    Вы не можете отвечать на сообщения
    Вы не можете редактировать свои сообщения
    Вы не можете удалять свои сообщения
    Вы не можете голосовать в опросах
    Вы не можете прикреплять файлы к сообщениям
    Вы можете скачивать файлы