новый адрес
Ссылка на приватное зеркало всего за 1$. Внимание количество ограничено!!!

iTunes

1+1

iTunes

мы

WEB-DL

1

iTunes

Чернобыль

iTunes

Ральф против интернета

Лицензия

ПШазам

Лицензия

Оно 2

Лицензия

30
pack

Вам бонус

ВАЖНО

!!Акция!!

Alien_RageХит недели

RePack

Resident Evil 21

ИГРА 18+

pack

RePack

jed

!!Акция!!

Alien_Rage

RePack

fifa19

RePack

Assassins Creed: Odyssey

RePack

NEED FOR SPEED™ PAYBACK

3 сезон

9 сезон

Бесстыжие 9 сезон

Все сериалы

все сериалы на PB.wtf

RePack

FAR CRY 5
Ребята, катастрофически не хватает 1900р. для оплаты серверов за Октябрь (всвязи с блокировками трафик упал в 3 раза), 1-2р., выручайте.
  

Американская история ужасов / American Horror Story / Сезон: 9 / Серии: 1-9 из 9 (Брэдли Букер, Альфонсо Гомес-Рехон, Майкл Аппендаль) [2019, Ужасы, триллер, драма, WEB-DL 720p] MVO [LostFilm] pb.wtf

Американская история ужасов через торрент pb.wtf

Качают: 1 [ 0 KB/s ]
Размер: 12.33 GB | Добавлен: 22 д. назад | Торрент скачан:22 раза
Скачать  

22-09-2019 05:38 Американская история ужасов Скачать торрент  

Американская история ужасов | American Horror Story Год выпуска: 2019
Страна: США
Жанр: Ужасы, триллер, драма
Продолжительность: ~00:45:00
Перевод: Профессиональный (многоголосый закадровый) | LostFilm
Субтитры: Русские (Full |«FOCS»|*, английские (Full, SDH)

Режиссёр: Брэдли Букер, Альфонсо Гомес-Рехон, Майкл Аппендаль

В ролях: Эмма Робертс, Билли Лурд, Лесли Гроссман, Коди Ферн, Мэттью Моррисон, Гас Кенуорти, Джон Кэрролл Линч, Анджелика Росс, Зэк Вилла и др.

Описание: После призраков, клоунов и ведьм настал черёд слэшеров 1980-х, где незадачливых подростков убивает незнакомец с ножом и в маске. По всем правилам жанра истории об убийце полушёпотом пересказывают вокруг костра, в деле замешаны прошлые преступления и не самая надёжная психиатрическая больница.



Качество: WEB-DL 720p
Формат: MKV

Видео: AVC, 1280x720 (16:9), 23.976 fps, ~ 4000 Kbps
Аудио №1: AC3, 48,0 kHz, 6 ch, 640 kbps | LostFilm
Аудио №2: AC3, 48,0 kHz, 6 ch, 640 kbps | Original


Реклама: Отсутствует | чистый видеоряд (без заставки и логотипа)
01. Camp Redwood / Лагерь "Рэдвуд"
Исходник: American.Horror.Story.S09.720p.AMZN.WEB-DL.DDP5.1.x264-AJP69
Аудио №1 получено наложением выделенных голосов от «LostFilm» на центр оригинального EAC3
Постер и работа со звуком: itunestv@eniahd
Complete name : F:\American.Horror.Story_s09_LostFilm_720p\American.Horror.Story.s09e01.WEB-DL.720p_EniaHD.mkv
Format : Matroska
Format version : Version 2
File size : 1.82 GiB
Duration : 48 min 10 s
Overall bit rate : 5 407 kb/s
Movie name : American Horror Story 09x01 (Camp Redwood) - release by Kastiel@EniaHD
Encoded date : UTC 2019-09-22 04:47:44
Writing application : mkvmerge v4.9.1 ('Ich will') сборка от Jul 11 2011 23:53:15
Writing library : libebml v1.2.1 + libmatroska v1.1.1

Video
ID : 1
Format : AVC
Format/Info : Advanced Video Codec
Format profile : High@L3.1
Format settings : CABAC / 4 Ref Frames
Format settings, CABAC : Yes
Format settings, Reference : 4 frames
Codec ID : V_MPEG4/ISO/AVC
Duration : 48 min 10 s
Bit rate mode : Constant
Bit rate : 4 020 kb/s
Nominal bit rate : 6 000 kb/s
Width : 1 280 pixels
Height : 720 pixels
Display aspect ratio : 16:9
Frame rate mode : Constant
Frame rate : 23.976 (24000/1001) FPS
Color space : YUV
Chroma subsampling : 4:2:0
Bit depth : 8 bits
Scan type : Progressive
Bits/(Pixel*Frame) : 0.182
Stream size : 1.35 GiB (74%)
Language : English
Default : Yes
Forced : No
Color range : Limited
Color primaries : BT.709
Transfer characteristics : BT.709
Matrix coefficients : BT.709

Audio #1
ID : 2
Format : AC-3
Format/Info : Audio Coding 3
Commercial name : Dolby Digital
Codec ID : A_AC3
Duration : 48 min 10 s
Bit rate mode : Constant
Bit rate : 640 kb/s
Channel(s) : 6 channels
Channel layout : L R C LFE Ls Rs
Sampling rate : 48.0 kHz
Frame rate : 31.250 FPS (1536 SPF)
Bit depth : 16 bits
Compression mode : Lossy
Stream size : 221 MiB (12%)
Title : DD5.1 LostFilm
Language : Russian
Service kind : Complete Main
Default : Yes
Forced : No

Audio #2
ID : 3
Format : AC-3
Format/Info : Audio Coding 3
Commercial name : Dolby Digital
Codec ID : A_AC3
Duration : 48 min 10 s
Bit rate mode : Constant
Bit rate : 640 kb/s
Channel(s) : 6 channels
Channel layout : L R C LFE Ls Rs
Sampling rate : 48.0 kHz
Frame rate : 31.250 FPS (1536 SPF)
Bit depth : 16 bits
Compression mode : Lossy
Stream size : 221 MiB (12%)
Title : DD5.1 Original
Language : English
Service kind : Complete Main
Default : No
Forced : No

Text #1
ID : 4
Format : UTF-8
Codec ID : S_TEXT/UTF8
Codec ID/Info : UTF-8 Plain Text
Language : English
Default : No
Forced : No

Text #2
ID : 5
Format : UTF-8
Codec ID : S_TEXT/UTF8
Codec ID/Info : UTF-8 Plain Text
Title : SDH
Language : English
Default : No
Forced : No
pb.wtf



Скачать Американская история ужасов через торрент https://c.radikal.ru/c15/1909/7e/092860d0591d.png Скачать фильм Американская история ужасов через торрент бесплантно в хорошем качестве Описание: После призраков, клоунов и ведьм настал черёд слэшеров 1980-х, где незадачливых подростков убивает незнакомец с ножом и в маске. ... 10 10 3
Торрент: Зарегистрирован [2019-11-16 13:55] · скачан: 22 раз
Статус: √ проверено
Размер: 12.33 GB
Как cкачать? Как скачать Американская история ужасов через торрент | qTorrent

% Раздел Тема Автор DL S | L
Американская история ужасов [ 22.13 GB ] Американская история ужасов / American Horror Story / Сезон: 9 / Серии: 1-9 из 9 [2019 WEB-DL 1080p] MVO [Jaskier] bober100 Скачать
2 | 0
Американская история ужасов [ 12.09 GB ] Американская история ужасов / American Horror Story / Сезон: 9 / Серии: 1-9 из 9 [2019 WEB-DL 720p] [MVO] killermax2013 Скачать
1 | 1
Американская история ужасов [ 23.48 GB ] Американская история ужасов / American Horror Story / Сезон: 9 / Серия: 1-9 из 9 [2019 WEB-DL 1080p] MVO [LostFilm] bober100 Скачать
1 | 0
Американская история ужасов [ 13.12 GB ] Американская история ужасов / American Horror Story / Сезон: 9 / Серии: 1-9 из 9 [2019 WEB-DL 720p] MVO [NewStudio] bober100 Скачать
1 | 0
Американская история ужасов [ 12.04 GB ] Американская история ужасов / American Horror Story / Сезон: 9 / Серии: 1-5 из 10 [2019 WEB-DL 1080p] MVO [AMS] bober100 Скачать
1 | 0
Американская история ужасов [ 22.48 GB ] Американская история ужасов / American Horror Story / Сезон: 9 / Серии: 1-9 из 9 [2019 WEB-DL 1080p] [MVO] killermax2013 Скачать
1 | 0
Американская история ужасов [ 5.25 GB ] Американская история ужасов / American Horror Story / Сезон: 9 / Серии: 1-9 из 9 [2019 WEB-DLRip] MVO [Amedia] bober100 Скачать
3 | 0

28-11-2019 20:33  

Отключить всю рекламу на сайте

    Дорогой пользователь! Огромная просьба, поблагодарите релизера, оцените раздачу и оставьте свои комментарий, если Вы скачали Американская история ужасов через торрент бесплатно! Внесите свою лепту в развитие PiratBit!
    Комментировать посты могут только пользователи прошедшие не сложную регистрацию
    Показать сообщения:    

    Американская история ужасов через торрент
    Скачать бесплатно Американская история ужасов
    Американская история ужасов скачать торрент
    Американская история ужасов смотреть онлайн
    Cкачать фильм Американская история ужасов бесплатно
    Американская история ужасов скачать торрент в хорошем качестве
    Американская история ужасов смотреть онлайн бесплатно в хорошем качестве


    Вы не можете начинать темы
    Вы не можете отвечать на сообщения
    Вы не можете редактировать свои сообщения
    Вы не можете удалять свои сообщения
    Вы не можете голосовать в опросах
    Вы не можете прикреплять файлы к сообщениям
    Вы можете скачивать файлы