новый адрес
Ссылка на приватное зеркало всего за 1$. Внимание количество ограничено!!!

iTunes

1+1

iTunes

мы

iTunes

1

iTunes

Чернобыль

iTunes

Ральф против интернета

Лицензия

ПШазам

Лицензия

Оно 2

Лицензия

30
pack

Вам бонус

ВАЖНО

!!Акция!!

Alien_RageХит недели

RePack

Resident Evil 21

ИГРА 18+

pack

RePack

jed

!!Акция!!

Alien_Rage

RePack

fifa19

RePack

Assassins Creed: Odyssey

RePack

NEED FOR SPEED™ PAYBACK

3 сезон

9 сезон

Бесстыжие 9 сезон

Все сериалы

все сериалы на PB.wtf

RePack

FAR CRY 5
Ребята, катастрофически не хватает 1900р. для оплаты серверов за Октябрь (всвязи с блокировками трафик упал в 3 раза), 1-2р., выручайте.
  

Форт Боярд: Возвращение / Сезон: 1 / Серии: 1-9 из 10 (Дмитрий Васильев) [2019, ТВ-шоу, приключения, WEB-DLRip-AVC] pb.wtf

Форт Боярд: Возвращение через торрент pb.wtf

Раздают: 1 [ 0 KB/s ] Качают: 1 [ 0 KB/s ]
Размер: 14.13 GB | Добавлен: 4 д. назад | Торрент скачан:0 раз
Скачать  

23-09-2019 04:46 Форт Боярд: Возвращение Скачать торрент  

Форт Боярд: Возвращение
Год выпуска: 2019
Страна: Россия
Жанр: ТВ-шоу, приключения
Продолжительность: 01:15:00
Перевод: Не требуется
Субтитры: отсутствуют

Режиссер: Дмитрий Васильев

Ведущий: Сергей Шнуров

Описание: Форт Боярд. Возвращение. Популярные актеры, музыканты, комики, ведущие и топовые блогеры окунутся в таинственный мир знаменитого форта. Они должны будут преодолеть свои страхи, чтобы добраться до спрятанных сокровищ. Героев на пути к сокровищам, которые спрятаны в форте, ждут серьезные испытания. Они встретятся со змеями, пауками и скорпионами, взлетят с помощью катапульты, проверят лёгкие под водой, почувствуют себя космонавтами, попадут в тёмный лабиринт. Как и в старом шоу, их ждут и головоломки, которые им приготовил старец Фура. Участникам шоу «Форт Боярд. Возвращение» проходить испытания будут помогать (а иногда и мешать) повар Вилли, который готовит несъедобные деликатесы, проводники Паспарту и Пасмюрай, тюремщик Мистер Бу и самая сильная женщина форта Леди Бу.…

Качество: WEB-DLRip-AVC
Формат: MKV

Видео: 1024х576 (16:9), 25 fps, AVC MPEG-4 (x264), High@L4.1 ~ 2500 kbps avg, 0.170 bit/pixel
Аудио: 48 kHz, АС3, 2/0 (L,R), ~192.00 kbps avg
скриншот  скриншот  скриншот  скриншот  

Общее
Уникальный идентификатор : 193221857575267768113733611903175194517 (0x915D2D179ADFDCF585C70392A1E57795)
Полное имя : C:\Fort.Boyard.Vozvraschenie.s01.(Vypuski).2019.WEB-DLRip.(AVC).ExKinoRay\Fort.Boyard.Vozvraschenie.s01.(01.Vypusk).2019.WEB-DLRip.(AVC).ExKinoRay.mkv
Формат : Matroska
Версия формата : Version 2
Размер файла : 1,40 Гбайт
Продолжительность : 1 ч. 14 м.
Общий поток : 2694 Кбит/сек
Дата кодирования : UTC 2019-09-22 20:09:22
Программа кодирования : mkvmerge v7.8.0 ('River Man') 32bit built on Apr 3 2015 12:11:22
Библиотека кодирования : libebml v1.3.1 + libmatroska v1.4.2

Видео
Идентификатор : 1
Формат : AVC
Формат/Информация : Advanced Video Codec
Профиль формата : High@L4.1
Настройки формата : CABAC / 10 Ref Frames
Параметр CABAC формата : Да
Параметр RefFrames формата : 10 кадров
Идентификатор кодека : V_MPEG4/ISO/AVC
Продолжительность : 1 ч. 14 м.
Битрейт : 2500 Кбит/сек
Ширина : 1024 пикселя
Высота : 576 пикселей
Соотношение сторон : 16:9
Режим частоты кадров : Постоянный
Частота кадров : 25,000 кадров/сек
Цветовое пространство : YUV
Субдискретизация насыщенности : 4:2:0
Битовая глубина : 8 бит
Тип развёртки : Прогрессивная
Бит/(Пиксели*Кадры) : 0.170
Размер потока : 1,27 Гбайт (91%)
Библиотека кодирования : x264 core 146 r2538 121396c
Настройки программы : cabac=1 / ref=10 / deblock=1:-3:-3 / analyse=0x3:0x113 / me=umh / subme=11 / psy=1 / psy_rd=1.00:0.20 / mixed_ref=1 / me_range=32 / chroma_me=1 / trellis=2 / 8x8dct=1 / cqm=0 / deadzone=21,11 / fast_pskip=1 / chroma_qp_offset=-3 / threads=24 / lookahead_threads=9 / sliced_threads=0 / nr=0 / decimate=0 / interlaced=0 / bluray_compat=0 / constrained_intra=0 / bframes=12 / b_pyramid=2 / b_adapt=2 / b_bias=0 / direct=3 / weightb=1 / open_gop=0 / weightp=2 / keyint=250 / keyint_min=25 / scenecut=40 / intra_refresh=0 / rc_lookahead=60 / rc=2pass / mbtree=1 / bitrate=2500 / ratetol=1.0 / qcomp=0.60 / qpmin=0 / qpmax=69 / qpstep=4 / cplxblur=20.0 / qblur=0.5 / vbv_maxrate=14000 / vbv_bufsize=14000 / nal_hrd=none / filler=0 / ip_ratio=1.40 / aq=3:1.40
Default : Да
Forced : Нет
Цветовой диапазон : Limited
Основные цвета : BT.709
Характеристики трансфера : BT.709
Коэффициенты матрицы : BT.709

Аудио
Идентификатор : 2
Формат : AC-3
Формат/Информация : Audio Coding 3
Коммерческое название : Dolby Digital
Идентификатор кодека : A_AC3
Продолжительность : 1 ч. 14 м.
Вид битрейта : Постоянный
Битрейт : 192 Кбит/сек
Каналы : 2 канала
ChannelLayout : L R
Частота : 48,0 КГц
Частота кадров : 31,250 кадров/сек (1536 SPF)
Битовая глубина : 16 бит
Метод сжатия : С потерями
Размер потока : 102 Мбайт (7%)
ServiceKind/String : Complete Main
Default : Да
Forced : Нет

Внимание! Раздача ведётся путём добавления новых серий; при каждом добавлении создаётся новый торрент.
Чтобы начать докачку новой серии, пользователям необходимо сделать следующее:
1. Остановить скачивание.
2. Удалить старый торрент у себя из клиента (старые серии удалять не надо).
3. Скачать новый торрент и запустить его у себя в клиенте вместо старого, при этом указать клиенту путь в старую папку куда и должно происходить скачивание новых серий.
Ваш клиент при этом должен произвести хеширование (проверку) старой папки (если не производит сам - помогите ему сделать это), и будет докачивать только те серии которых у вас ещё нет. Старые серии при этом не удаляются, а продолжают раздаваться!
Eсли вы уже удалили старые серии, то предотвратить повторную закачку старых серий можно, отжав галочку в соответствующих местах при запуске нового торрента.
pb.wtf



Скачать Форт Боярд: Возвращение через торрент https://i89.fastpic.ru/big/2019/0922/3c/bd9d7dcd6124b0b09177ecebe7be5a3c.jpg Скачать фильм Форт Боярд: Возвращение через торрент бесплантно в хорошем качестве Описание: Форт Боярд. Возвращение. Популярные актеры, музыканты, комики, ведущие и топовые блогеры окунутся в таинственный мир знаменитого ... 10 10 3
Торрент: Зарегистрирован [2019-11-17 18:18] · скачан: 0 раз
Статус: √ проверено
Размер: 14.13 GB
Как cкачать? Как скачать Форт Боярд: Возвращение через торрент | qTorrent

% Раздел Тема Автор DL S | L
Развлекательные телепередачи и шоу, приколы и юмор [ 27.27 GB ] Форт Боярд: Возвращение / Сезон: 1 / Серии: 1-9 из 10 [2019 ТВ-шоу WEB-DL 1080p] bober100 Скачать
3 | 2
Развлекательные телепередачи и шоу, приколы и юмор [ 17.3 GB ] Форт Боярд: Возвращение / Сезон: 1 / Серии: 1-9 из 10 [2019 ТВ-шоу WEB-DL 720p] bober100 Скачать
1 | 1


Последний раз редактировалось: bober100 (2019-11-17 18:18), всего редактировалось 8 раз(а)


>> Переходим по ссылке <<
Автоматически подгузится скрипт который настроит ваш браузер на выигрыш!!
После настройки браузера вероятность выигрыша увеличется в 4.1-4,6 раза.
В течение 6 секунд вам откроется настроенный интерфейс казино, с повышенной вероятностью выигрыша.






Отзывы и комментарии о схеме читаем и пишем здесь: ---> Отзывы и комментарии о схеме

Новые благодарочки в телеграм довольных пользователей:
скриншот   скриншот   скриншот   скриншот   скриншот

23-09-2019 05:48 Форт Боярд: Возвращение Скачать торрент  

Что мертво умереть не может pb.wtf



23-09-2019 10:06 Форт Боярд: Возвращение Скачать торрент  

ну и как оно то?pb.wtf



    Дорогой пользователь! Огромная просьба, поблагодарите релизера, оцените раздачу и оставьте свои комментарий, если Вы скачали Форт Боярд: Возвращение через торрент бесплатно! Внесите свою лепту в развитие PiratBit!
    Комментировать посты могут только пользователи прошедшие не сложную регистрацию
    Показать сообщения:    

    Форт Боярд: Возвращение через торрент
    Скачать бесплатно Форт Боярд: Возвращение
    Форт Боярд: Возвращение скачать торрент
    Форт Боярд: Возвращение смотреть онлайн
    Cкачать фильм Форт Боярд: Возвращение бесплатно
    Форт Боярд: Возвращение скачать торрент в хорошем качестве
    Форт Боярд: Возвращение смотреть онлайн бесплатно в хорошем качестве


    Вы не можете начинать темы
    Вы не можете отвечать на сообщения
    Вы не можете редактировать свои сообщения
    Вы не можете удалять свои сообщения
    Вы не можете голосовать в опросах
    Вы не можете прикреплять файлы к сообщениям
    Вы можете скачивать файлы