новый адрес пиратбит piratbit
Мега распродажа FORZA HORIZON 4 ULTIMATE+ВСЕ DLC+ОНЛАЙН всего за 499р. 349 руб. (супер цена). Внимание количество ограничено!!!

iTunes

1+1

iTunes

мы

iTunes

1

iTunes

Чернобыль

iTunes

Ральф против интернета

Лицензия

ПШазам

Лицензия

Игра престолов

Лицензия

30
pack

ВАЖНО

!!Акция!!

Alien_RageХит недели

RePack

Resident Evil 21

ИГРА 18+

pack

RePack

Metro:Exodus

!!Акция!!

Alien_Rage

RePack

fifa19

RePack

Assassins Creed: Odyssey

RePack

NEED FOR SPEED™ PAYBACK

3 сезон

9 сезон

Бесстыжие 9 сезон

Все сериалы

все сериалы на PB.wtf

RePack

FAR CRY 5
Ребята, катастрофически не хватает 1900р. для оплаты серверов за Октябрь (всвязи с блокировками трафик упал в 3 раза), 1-2р., выручайте.
  

Призрачный патруль / Deadtectives (Тони Уэст) [2018, ужасы, комедия, WEB-DL 1080p] MVO [iTunes] pb.wtf

Призрачный патруль через торрент pb.wtf

Раздают: 24 [ 518 KB/s ]
Размер: 6.05 GB | Добавлен: 6 д. назад | Торрент скачан:165 раз
Скачать  

23-09-2019 05:44 Призрачный патруль Скачать торрент  

Призрачный патруль / Deadtectives
Год выпуска: 2018
Страна: США
Студия: Bad Idea, BondIt Media Capital, Dark Factory Entertainment
Жанр: ужасы, комедия
Продолжительность: 01:32:03
Перевод: Профессиональный многоголосый | iTunes
Субтитры: Английские

Режиссер: Тони Уэст

rating

В ролях: Марта Игареда, Крис Гир, Тина Ивлев, Сеселия Антониетта, Хосе Мария Де Тавира, Дэвид Ньюман, Пабло Гиса Кёстингер, Нури Бланко, Эмилио Савинни, Марк Райли

Описание: Ведущие успешного телешоу «Призрачный патруль» прекрасно справляются с ролью умелых охотников за привидениями и прочей нечистью. До тех пор пока не оказываются в заброшенном особняке, полном паранормальных секретов. Как не опозориться перед поклонниками шоу и не умереть от страха?

Качество: WEB-DL 1080p
Формат: MKV

Видео: AVC/H.264, 1920x1080, 8792 Кbps, 23,976 fps
Аудио 1: AC3, 6 ch, 384 Kbps - Русский
Аудио 2: E-AC3, 2 ch, 224 Kbps - Английский
скриншот  скриншот  скриншот  скриншот  

Общее
Уникальный идентификатор : 109036170451684776498437561686447975056 (0x52079A41FD54F31E0573AC4CF1956A90)
Полное имя : Deadtectives.2018.WEB-DL.1080p.mkv
Формат : Matroska
Версия формата : Version 4
Размер файла : 6,05 Гбайт
Продолжительность : 1 ч. 32 м.
Общий поток : 9402 Кбит/сек
Дата кодирования : UTC 2019-11-06 22:12:09
Программа кодирования : mkvmerge v23.0.0 ('The Bride Said No') 64-bit
Библиотека кодирования : libebml v1.3.6 + libmatroska v1.4.9

Видео
Идентификатор : 1
Формат : AVC
Формат/Информация : Advanced Video Codec
Профиль формата : High@L4
Настройки формата : CABAC / 4 Ref Frames
Параметр CABAC формата : Да
Параметр RefFrames формата : 4 кадра
Идентификатор кодека : V_MPEG4/ISO/AVC
Продолжительность : 1 ч. 32 м.
Вид битрейта : Постоянный
Битрейт : 8792 Кбит/сек
Номинальный битрейт : 10000 Кбит/сек
Ширина : 1920 пикселей
Высота : 1080 пикселей
Соотношение сторон : 16:9
Режим частоты кадров : Постоянный
Частота кадров : 23,976 (24000/1001) кадра/сек
Цветовое пространство : YUV
Субдискретизация насыщенности : 4:2:0
Битовая глубина : 8 бит
Тип развёртки : Прогрессивная
Бит/(Пиксели*Кадры) : 0.177
Размер потока : 5,65 Гбайт (94%)
Default : Да
Forced : Нет
Цветовой диапазон : Limited
Основные цвета : BT.709
Характеристики трансфера : BT.709
Коэффициенты матрицы : BT.709

Аудио #1
Идентификатор : 2
Формат : AC-3
Формат/Информация : Audio Coding 3
Коммерческое название : Dolby Digital
Идентификатор кодека : A_AC3
Продолжительность : 1 ч. 31 м.
Вид битрейта : Постоянный
Битрейт : 384 Кбит/сек
Каналы : 6 каналов
ChannelLayout : L R C LFE Ls Rs
Частота : 48,0 КГц
Частота кадров : 31,250 кадров/сек (1536 SPF)
Метод сжатия : С потерями
Размер потока : 253 Мбайт (4%)
Заголовок : MVO | iTunes
Язык : Russian
ServiceKind : Complete Main
Default : Да
Forced : Нет

Аудио #2
Идентификатор : 3
Формат : E-AC-3
Формат/Информация : Enhanced AC-3
Коммерческое название : Dolby Digital Plus
Идентификатор кодека : A_EAC3
Продолжительность : 1 ч. 32 м.
Вид битрейта : Постоянный
Битрейт : 224 Кбит/сек
Каналы : 2 канала
ChannelLayout : L R
Частота : 48,0 КГц
Частота кадров : 31,250 кадров/сек (1536 SPF)
Метод сжатия : С потерями
Размер потока : 148 Мбайт (2%)
Язык : English
ServiceKind : Complete Main
Default : Нет
Forced : Нет

Текст #1
Идентификатор : 4
Формат : UTF-8
Идентификатор кодека : S_TEXT/UTF8
Идентификатор кодека/Информация : UTF-8 Plain Text
Продолжительность : 1 ч. 24 м.
Битрейт : 55 бит/сек
ElementCount : 1249
Размер потока : 34,5 Кбайт (0%)
Язык : English
Default : Нет
Forced : Нет

Текст #2
Идентификатор : 5
Формат : UTF-8
Идентификатор кодека : S_TEXT/UTF8
Идентификатор кодека/Информация : UTF-8 Plain Text
Продолжительность : 1 ч. 25 м.
Битрейт : 60 бит/сек
ElementCount : 1387
Размер потока : 37,8 Кбайт (0%)
Заголовок : SDH
Язык : English
Default : Нет
Forced : Нет

pb.wtf



Скачать Призрачный патруль через торрент http://d.radikal.ru/d20/1911/d9/09efbff43f88.jpg Скачать фильм Призрачный патруль через торрент бесплантно в хорошем качестве Описание: Ведущие успешного телешоу «Призрачный патруль» прекрасно справляются с ролью умелых охотников за привидениями и прочей нечистью. ... 9.3 10 15
Торрент: Зарегистрирован [2019-11-07 01:22] · скачан: 165 раз
Статус: √ проверено
Размер: 6.05 GB
Как cкачать? Как скачать Призрачный патруль через торрент | qTorrent

% Раздел Тема Автор DL S | L
Фильмы (WEB-DL 720p, 1080p) [ 2.48 GB ] Призрачный патруль / Deadtectives [2018 WEB-DL 720p] MVO bober100 Скачать
14 | 0
Фильмы 2018 [DVDrip, WEB-DLRip, HDrip] (DUB, MVO) [ 1.43 GB ] Призрачный патруль / Deadtectives [2018 WEB-DLRip] MVO bober100 Скачать
22 | 0


>> Регистрируемся здесь <<






Отзывы и комментарии о схеме читаем и пишем здесь: ---> Отзывы и комментарии о схеме

Новые благодарочки в телеграм довольных пользователей:
скриншот   скриншот   скриншот   скриншот   скриншот
    Дорогой пользователь! Огромная просьба, поблагодарите релизера, оцените раздачу и оставьте свои комментарий, если Вы скачали Призрачный патруль через торрент бесплатно! Внесите свою лепту в развитие PiratBit!
    Комментировать посты могут только пользователи прошедшие не сложную регистрацию
    Показать сообщения:    

    Призрачный патруль через торрент
    Скачать бесплатно Призрачный патруль
    Призрачный патруль скачать торрент
    Призрачный патруль смотреть онлайн
    Cкачать фильм Призрачный патруль бесплатно
    Призрачный патруль скачать торрент в хорошем качестве
    Призрачный патруль смотреть онлайн бесплатно в хорошем качестве


    Вы не можете начинать темы
    Вы не можете отвечать на сообщения
    Вы не можете редактировать свои сообщения
    Вы не можете удалять свои сообщения
    Вы не можете голосовать в опросах
    Вы не можете прикреплять файлы к сообщениям
    Вы можете скачивать файлы