Ссылка на приватное зеркало нашего сайта всего за 1$. Внимание количество ограничено!!!

2 сезон

iTunes

1 сезон

1

iTunes

iTunes

iTunes

1 сезон

RePack

30

ИГРА 18+

pack

ВАЖНО

!!Акция!!

Alien_RageХит недели

RePack

MK11
pack

Забери бонус

RePack

jed

!!Акция!!

Alien_Rage

RePack

fifa19

RePack

Assassins Creed: Odyssey

RePack

NEED FOR SPEED™ PAYBACK

4 сезон

9 сезон

Бесстыжие 9 сезон

Все сериалы

все сериалы на PB.wtf

RePack

FAR CRY 5
  

Руслан и Людмила: Перезагрузка (Олег Маламуж) [2018, Мультфильм, фэнтези, комедия, BDRip-AVC] Dub [iTunes] - ExKinoRay pb.wtf

Руслан и Людмила: Перезагрузка через торрент pb.wtf

Раздают: 3 [ 0 KB/s ]
Размер: 1.8 GB | Добавлен: 1 год назад | Торрент скачан:235 раз
Скачать  

23-09-2019 12:19 Руслан и Людмила: Перезагрузка Скачать торрент  

Информация о фильме
Название: Руслан и Людмила: Перезагрузка
Год выхода: 2018
Жанр: Мультфильм, фэнтези, комедия
Режиссер: Олег Маламуж
Роли озвучивают: Надежда Дорофеева, Алексей Завгородний, Евгений Малуха, Сергей Притула, Юрий Горбунов, Олег Михайлюта, Николай Боклан, Маша Ефросинина, Егор Крутоголов, Евгений Гашенко

Описание:
Бродячий артист Руслан влюбляется в прекрасную Милу, даже не подозревая, что она принцесса. Когда злой волшебник Черномор похищает его возлюбленную, рассчитывая превратить силу её любви в собственное колдовское могущество, Руслан отправляется в погоню за украденной принцессой. Ему придётся преодолеть все преграды и опасности на своём пути, чтобы доказать, что настоящая любовь сильнее магии.

rating

Страна: Украина
Студия: Animagrad Animation Studio, Film.UA
Продолжительность: 01:27:30
Перевод: Профессиональный (полное дублирование) | iTunes

Формат: MKV
Качество: BDRip-AVC
Видео: MPEG-4 AVC, 1024x428 (2.40:1), 23.976 fps, 2257 Kbps, 0.158 bit/pixel
Аудио #01: 48 kHz, AC3, 5.1, 384 Kbps | iTunes | RUS |
Аудио #02: 48 kHz, AC3, 2.0, 192 Kbps | UKR |
Субтитры: Русские (full)
General
Unique ID : 250582745434747242140765450296454346600 (0xBC847B3657BD9F75B7C9A9FF8E50F768)
Complete name : F:The.Stolen.Princess.2018.BDRip.AVC.ExKinoRay.mkv
Format : Matroska
Format version : Version 2
File size : 1.80 GiB
Duration : 1 h 31 min
Overall bit rate : 2 829 kb/s
Movie name : The Stolen Princess 2018 from ExKinoRay
Encoded date : UTC 2019-09-23 11:54:37
Writing application : mkvmerge v5.6.0 ('Kenya Kane') built on May 27 2012 16:44:04
Writing library : libebml v1.2.3 + libmatroska v1.3.0

Video
ID : 1
Format : AVC
Format/Info : Advanced Video Codec
Format profile : High@L4.1
Format settings, CABAC : Yes
Format settings, ReFrames : 12 frames
Codec ID : V_MPEG4/ISO/AVC
Duration : 1 h 31 min
Bit rate : 2 257 kb/s
Width : 1 024 pixels
Height : 428 pixels
Display aspect ratio : 2.40:1
Frame rate mode : Constant
Frame rate : 24.000 FPS
Color space : YUV
Chroma subsampling : 4:2:0
Bit depth : 8 bits
Scan type : Progressive
Bits/(Pixel*Frame) : 0.215
Stream size : 1.40 GiB (78%)
Title : Enigma
Writing library : x264 core 152 r2851 ba24899
Encoding settings : cabac=1 / ref=12 / deblock=1:-2:-2 / analyse=0x3:0x113 / me=umh / subme=10 / psy=1 / psy_rd=1.05:0.10 / mixed_ref=1 / me_range=32 / chroma_me=1 / trellis=2 / 8x8dct=1 / cqm=0 / deadzone=21,11 / fast_pskip=0 / chroma_qp_offset=-3 / threads=12 / lookahead_threads=2 / sliced_threads=0 / nr=0 / decimate=0 / interlaced=0 / bluray_compat=0 / constrained_intra=0 / bframes=9 / b_pyramid=2 / b_adapt=2 / b_bias=0 / direct=3 / weightb=1 / open_gop=0 / weightp=2 / keyint=240 / keyint_min=23 / scenecut=40 / intra_refresh=0 / rc=2pass / mbtree=0 / bitrate=2257 / ratetol=1.0 / qcomp=0.60 / qpmin=0 / qpmax=51 / qpstep=4 / cplxblur=20.0 / qblur=0.5 / ip_ratio=1.40 / pb_ratio=1.30 / aq=1:1.00
Language : English
Default : Yes
Forced : No
Color range : Limited
Color primaries : BT.709
Transfer characteristics : BT.709
Matrix coefficients : BT.709

Audio #1
ID : 2
Format : AC-3
Format/Info : Audio Coding 3
Mode extension : CM (complete main)
Format settings, Endianness : Big
Codec ID : A_AC3
Duration : 1 h 31 min
Bit rate mode : Constant
Bit rate : 384 kb/s
Channel(s) : 6 channels
Channel positions : Front: L C R, Side: L R, LFE
Sampling rate : 48.0 kHz
Frame rate : 31.250 FPS (1536 spf)
Compression mode : Lossy
Stream size : 250 MiB (14%)
Title : iTunes
Language : Russian
Default : Yes
Forced : No

Audio #2
ID : 3
Format : AC-3
Format/Info : Audio Coding 3
Mode extension : CM (complete main)
Format settings, Endianness : Big
Codec ID : A_AC3
Duration : 1 h 31 min
Bit rate mode : Constant
Bit rate : 192 kb/s
Channel(s) : 2 channels
Channel positions : Front: L R
Sampling rate : 48.0 kHz
Frame rate : 31.250 FPS (1536 spf)
Compression mode : Lossy
Stream size : 125 MiB (7%)
Language : Ukrainian
Default : No
Forced : No

Text
ID : 4
Format : UTF-8
Codec ID : S_TEXT/UTF8
Codec ID/Info : UTF-8 Plain Text
Language : Russian
Default : No
Forced : No



Релиз от:

Автор релиза: pb.wtf



Скачать Руслан и Людмила: Перезагрузка через торрент https://i86.fastpic.ru/big/2019/0923/8a/4d3b98a070e8e2e8871b375383aaba8a.jpg Скачать фильм Руслан и Людмила: Перезагрузка через торрент бесплантно в хорошем качестве Описание:Бродячий артист Руслан влюбляется в прекрасную Милу, даже не подозревая, что она принцесса. Когда злой волшебник Черномор похищает ... 9.7 10 7
Info! Золотая раздача, скачанное не засчитывается.
Торрент: Зарегистрирован [2019-09-23 12:19] · скачан: 235 раз
Статус: √ проверено
Размер: 1.8 GB
Как cкачать? Как скачать Руслан и Людмила: Перезагрузка через торрент | qTorrent

28-11-2019 20:33  

Отключить всю рекламу на сайте

    Дорогой пользователь! Огромная просьба, поблагодарите релизера, оцените раздачу и оставьте свои комментарий, если Вы скачали Руслан и Людмила: Перезагрузка через торрент бесплатно! Внесите свою лепту в развитие PiratBit!
    Комментировать посты могут только пользователи прошедшие не сложную регистрацию
    Показать сообщения:    

    Руслан и Людмила: Перезагрузка через торрент
    Скачать бесплатно Руслан и Людмила: Перезагрузка
    Руслан и Людмила: Перезагрузка скачать торрент
    Руслан и Людмила: Перезагрузка смотреть онлайн
    Cкачать фильм Руслан и Людмила: Перезагрузка бесплатно
    Руслан и Людмила: Перезагрузка скачать торрент в хорошем качестве
    Руслан и Людмила: Перезагрузка смотреть онлайн бесплатно в хорошем качестве


    Вы не можете начинать темы
    Вы не можете отвечать на сообщения
    Вы не можете редактировать свои сообщения
    Вы не можете удалять свои сообщения
    Вы не можете голосовать в опросах
    Вы не можете прикреплять файлы к сообщениям
    Вы можете скачивать файлы