новый адрес пиратбит piratbit
Мега распродажа FORZA HORIZON 4 ULTIMATE+ВСЕ DLC+ОНЛАЙН всего за 499р. 349 руб. (супер цена). Внимание количество ограничено!!!

iTunes

1+1

iTunes

мы

iTunes

1

iTunes

Чернобыль

iTunes

Ральф против интернета

Лицензия

ПШазам

Лицензия

Игра престолов

Лицензия

30
pack

ВАЖНО

!!Акция!!

Alien_RageХит недели

RePack

Resident Evil 21

ИГРА 18+

pack

RePack

Metro:Exodus

!!Акция!!

Alien_Rage

RePack

fifa19

RePack

Assassins Creed: Odyssey

RePack

NEED FOR SPEED™ PAYBACK

3 сезон

9 сезон

Бесстыжие 9 сезон

Все сериалы

все сериалы на PB.wtf

RePack

FAR CRY 5
Ребята, катастрофически не хватает 1900р. для оплаты серверов за Октябрь (всвязи с блокировками трафик упал в 3 раза), 1-2р., выручайте.
  

Проклятие Аннабель 3 / Annabelle Comes Home (Гари Доберман) [2019, Ужасы, триллер, детектив, BDRip 1080p] DUB (rus,ukr) [Лицензия] +MVO [HDRezka Studio] pb.wtf

Проклятие Аннабель 3 через торрент pb.wtf

Раздают: 1 [ 123 KB/s ]
Размер: 12.47 GB | Добавлен: 29 д. назад | Торрент скачан:53 раза
Скачать  

23-09-2019 17:34 Проклятие Аннабель 3 Скачать торрент  

Проклятие Аннабель 3 / Annabelle Comes Home
Год выпуска: 2019
Страна: США
Жанр: Ужасы, триллер, детектив
Продолжительность: 01:46:03
Перевод:

#1: Дублированный | Лицензия
#2: Профессиональный многоголосый | HDRezka Studio

Субтитры: Русские (Forced, full), украинские (Forced), английские

Режиссер: Гари Доберман

rating

В ролях: Маккенна Грейс, Мэдисон Айсмен, Кэти Сариф, Вера Фармига, Патрик Уилсон, Майкл Чимино, Самара Ли, Кензи Каплан, Шаде Катарина, Майкл Патрик МакГилл

Описание: Преисполнившись решимости удержать Аннабель от дальнейших разрушений и хаоса, демонологи Эд и Лоррейн Уоррены приносят одержимую куклу в запертую комнату артефактов в своем доме, поместив ее под «надежное» освященное стекло и заручившись благословением священника. Однако беспросветная ночь ужаса ждет обитателей дома, когда Аннабель пробуждает злых духов комнаты и их новой мишенью становится десятилетняя дочь Уорренов Джуди и ее друзья.

Качество: BDRip 1080p
Формат: MKV

Видео: MPEG-4 AVC, 1920x804, 15.4 Mbit/s, 23.976 fps
Аудио #01: 48 kHz, AC3, 5.1, 448 Kbps | Лицензия | RUS |
Аудио #02: 48 kHz, AC3, 2.0, 192 Kbps | HDRezka Studio | RUS |
Аудио #03: 48 kHz, AC3, 2.0, 160 Kbps | iTunes | UKR |
Аудио #04: 48 kHz, AC3, 5.1, 640 Kbps | Оригинал | ENG |
скриншот  скриншот  скриншот  скриншот  скриншот  

General
Unique ID : 177117431492497088331723500189135535318 (0x853F939566C6A80020A0CB4BDEA5FCD6)
Complete name : D:Video111Annabelle.Comes.Home.2019.Lic.BDRip.1080p.seleZen.mkv
Format : Matroska
Format version : Version 4
File size : 12.5 GiB
Duration : 1 h 46 min
Overall bit rate : 16.8 Mb/s
Movie name : Annabelle Comes Home 2019 from селезень
Encoded date : UTC 2019-10-13 19:38:31
Writing application : mkvmerge v22.0.0 ('At The End Of The World') 64-bit
Writing library : libebml v1.3.5 + libmatroska v1.4.8

Video
ID : 1
Format : AVC
Format/Info : Advanced Video Codec
Format profile : High@L4.1
Format settings : CABAC / 5 Ref Frames
Format settings, CABAC : Yes
Format settings, Reference : 5 frames
Codec ID : V_MPEG4/ISO/AVC
Duration : 1 h 46 min
Bit rate : 15.4 Mb/s
Width : 1 920 pixels
Height : 804 pixels
Display aspect ratio : 2.40:1
Frame rate mode : Constant
Frame rate : 23.976 (24000/1001) FPS
Color space : YUV
Chroma subsampling : 4:2:0
Bit depth : 8 bits
Scan type : Progressive
Bits/(Pixel*Frame) : 0.416
Stream size : 11.4 GiB (91%)
Title : iFT
Writing library : x264 core 155 r2867+74 66b5600 t_mod_Custom_2 [8-bit@all X86_64]
Encoding settings : cabac=1 / ref=5 / deblock=1:-3:-3 / analyse=0x3:0x113 / me=umh / subme=11 / psy=1 / fade_compensate=0.00 / psy_rd=1.00:0.00 / mixed_ref=1 / me_range=32 / chroma_me=1 / trellis=2 / 8x8dct=1 / cqm=0 / deadzone=21,11 / fast_pskip=0 / chroma_qp_offset=-2 / threads=18 / lookahead_threads=4 / sliced_threads=0 / nr=0 / decimate=0 / interlaced=0 / bluray_compat=0 / constrained_intra=0 / fgo=0 / bframes=10 / b_pyramid=2 / b_adapt=2 / b_bias=0 / direct=3 / weightb=1 / open_gop=0 / weightp=2 / keyint=250 / keyint_min=23 / scenecut=40 / intra_refresh=0 / rc_lookahead=60 / rc=crf / mbtree=0 / crf=18.1000 / qcomp=0.60 / qpmin=0:0:0 / qpmax=69:69:69 / qpstep=4 / vbv_maxrate=62500 / vbv_bufsize=78125 / crf_max=0.0 / nal_hrd=none / filler=0 / ip_ratio=1.30 / pb_ratio=1.20 / aq=3:0.85 / aq-sensitivity=10.00 / aq-factor=1.00:1.00:1.00 / aq2=0 / aq3=0
Language : English
Default : Yes
Forced : No
Color range : Limited
Color primaries : BT.709
Transfer characteristics : BT.709
Matrix coefficients : BT.709

Audio #1
ID : 2
Format : AC-3
Format/Info : Audio Coding 3
Commercial name : Dolby Digital
Codec ID : A_AC3
Duration : 1 h 46 min
Bit rate mode : Constant
Bit rate : 448 kb/s
Channel(s) : 6 channels
Channel layout : L R C LFE Ls Rs
Sampling rate : 48.0 kHz
Frame rate : 31.250 FPS (1536 SPF)
Bit depth : 16 bits
Compression mode : Lossy
Stream size : 340 MiB (3%)
Title : Dub [License]
Language : Russian
Service kind : Complete Main
Default : Yes
Forced : Yes

Audio #2
ID : 3
Format : AC-3
Format/Info : Audio Coding 3
Commercial name : Dolby Digital
Codec ID : A_AC3
Duration : 1 h 46 min
Bit rate mode : Constant
Bit rate : 192 kb/s
Channel(s) : 2 channels
Channel layout : L R
Sampling rate : 48.0 kHz
Frame rate : 31.250 FPS (1536 SPF)
Bit depth : 16 bits
Compression mode : Lossy
Stream size : 146 MiB (1%)
Title : MVO [HDRezka Studio]
Language : Russian
Service kind : Complete Main
Default : No
Forced : No

Audio #3
ID : 4
Format : AC-3
Format/Info : Audio Coding 3
Commercial name : Dolby Digital
Codec ID : A_AC3
Duration : 1 h 46 min
Bit rate mode : Constant
Bit rate : 160 kb/s
Channel(s) : 2 channels
Channel layout : L R
Sampling rate : 48.0 kHz
Frame rate : 31.250 FPS (1536 SPF)
Bit depth : 16 bits
Compression mode : Lossy
Stream size : 121 MiB (1%)
Title : Dub [iTunes]
Language : Ukrainian
Service kind : Complete Main
Default : No
Forced : No

Audio #4
ID : 5
Format : AC-3
Format/Info : Audio Coding 3
Commercial name : Dolby Digital
Codec ID : A_AC3
Duration : 1 h 46 min
Bit rate mode : Constant
Bit rate : 640 kb/s
Channel(s) : 6 channels
Channel layout : L R C LFE Ls Rs
Sampling rate : 48.0 kHz
Frame rate : 31.250 FPS (1536 SPF)
Bit depth : 16 bits
Compression mode : Lossy
Stream size : 486 MiB (4%)
Title : Original
Language : English
Service kind : Complete Main
Default : No
Forced : No

Text #1
ID : 6
Format : UTF-8
Codec ID : S_TEXT/UTF8
Codec ID/Info : UTF-8 Plain Text
Duration : 1 h 37 min
Bit rate : 2 b/s
Count of elements : 36
Stream size : 1.87 KiB (0%)
Title : Forced
Language : Russian
Default : Yes
Forced : Yes

Text #2
ID : 7
Format : UTF-8
Codec ID : S_TEXT/UTF8
Codec ID/Info : UTF-8 Plain Text
Duration : 1 h 45 min
Bit rate : 51 b/s
Count of elements : 900
Stream size : 39.9 KiB (0%)
Title : Full
Language : Russian
Default : No
Forced : No

Text #3
ID : 8
Format : UTF-8
Codec ID : S_TEXT/UTF8
Codec ID/Info : UTF-8 Plain Text
Duration : 1 h 42 min
Bit rate : 2 b/s
Count of elements : 38
Stream size : 2.09 KiB (0%)
Title : Forced
Language : Ukrainian
Default : No
Forced : No

Text #4
ID : 9
Format : UTF-8
Codec ID : S_TEXT/UTF8
Codec ID/Info : UTF-8 Plain Text
Duration : 1 h 40 min
Bit rate : 43 b/s
Count of elements : 1237
Stream size : 32.2 KiB (0%)
Title : SDH
Language : English
Default : No
Forced : No

Menu
00:00:00.000 : en:Chapter 01
00:07:57.560 : en:Chapter 02
00:15:34.225 : en:Chapter 03
00:24:02.066 : en:Chapter 04
00:32:57.017 : en:Chapter 05
00:43:00.411 : en:Chapter 06
00:52:29.688 : en:Chapter 07
01:02:07.599 : en:Chapter 08
01:06:14.179 : en:Chapter 09
01:15:05.334 : en:Chapter 10
01:21:45.025 : en:Chapter 11
01:30:22.250 : en:Chapter 12
01:39:58.618 : en:Chapter 13

pb.wtf



Скачать Проклятие Аннабель 3 через торрент https://b.radikal.ru/b21/1909/1d/85c6b2aa01e2.jpg Скачать фильм Проклятие Аннабель 3 через торрент бесплантно в хорошем качестве Описание: Преисполнившись решимости удержать Аннабель от дальнейших разрушений и хаоса, демонологи Эд и Лоррейн Уоррены приносят одержимую ... 10 10 15
Торрент: Зарегистрирован [2019-10-13 19:50] · скачан: 53 раз
Статус: √ проверено
Размер: 12.47 GB
Как cкачать? Как скачать Проклятие Аннабель 3 через торрент | qTorrent

% Раздел Тема Автор DL S | L
Фильмы [HD 720p, 1080p] (Хороший звук DUB, MVO) [ 4.93 GB ] Проклятие Аннабель 3 / Annabelle Comes Home [2019 BDRip 720p] DUB [] MVO [HDRezka Studio] - ExKinoRay Enigma2010 Скачать
98 | 7
Фильмы 2019 [DVDrip, WEB-DLRip, HDrip] (DUB, MVO) [ 747 MB ] Проклятие Аннабель 3 / Annabelle Comes Home [2019 HDRip] DUB [] bober100 Скачать
5 | 0
Фильмы 2019 [DVDrip, WEB-DLRip, HDrip] (DUB, MVO) [ 2.2 GB ] Проклятие Аннабель 3 / Annabelle Comes Home [2019 BDRip-AVC] DUB [] MVO - ExKinoRay Enigma2010 Скачать
68 | 9
Фильмы (Blu-ray, BD-Remux, HDDVD) [ 37.29 GB ] Проклятие Аннабель 3 / Annabelle Comes Home [2019 Blu-Ray EUR 1080p] DUB [] bober100 Скачать
1 | 0
Фильмы 2019 [DVDrip, WEB-DLRip, HDrip] (DUB, MVO) [ 1.46 GB ] Проклятие Аннабель 3 / Annabelle Comes Home [2019 BDRip] - [] Twi7ter Скачать
21 | 2
Фильмы 2019 [DVDrip, WEB-DLRip, HDrip] (DUB, MVO) [ 1.62 GB ] Проклятие Аннабель 3 / Annabelle Comes Home [2019 BDRip-AVC] bober100 Скачать
4 | 0
Фильмы 2019 [DVDrip, WEB-DLRip, HDrip] (DUB, MVO) [ 1.46 GB ] Проклятие Аннабель 3 / Annabelle Comes Home [2019 BDRip] DUB [] bober100 Скачать
4 | 0


Последний раз редактировалось: bober100 (2019-10-13 19:51), всего редактировалось 2 раз(а)


>> Регистрируемся здесь <<






Отзывы и комментарии о схеме читаем и пишем здесь: ---> Отзывы и комментарии о схеме

Новые благодарочки в телеграм довольных пользователей:
скриншот   скриншот   скриншот   скриншот   скриншот

28-09-2019 17:45 Проклятие Аннабель 3 Скачать торрент  

Фильм дерьмо, не тратьте свое время.pb.wtf



14-10-2019 05:51 Проклятие Аннабель 3 Скачать торрент  

Нормальный фильм.pb.wtf



    Дорогой пользователь! Огромная просьба, поблагодарите релизера, оцените раздачу и оставьте свои комментарий, если Вы скачали Проклятие Аннабель 3 через торрент бесплатно! Внесите свою лепту в развитие PiratBit!
    Комментировать посты могут только пользователи прошедшие не сложную регистрацию
    Показать сообщения:    

    Проклятие Аннабель 3 через торрент
    Скачать бесплатно Проклятие Аннабель 3
    Проклятие Аннабель 3 скачать торрент
    Проклятие Аннабель 3 смотреть онлайн
    Cкачать фильм Проклятие Аннабель 3 бесплатно
    Проклятие Аннабель 3 скачать торрент в хорошем качестве
    Проклятие Аннабель 3 смотреть онлайн бесплатно в хорошем качестве


    Вы не можете начинать темы
    Вы не можете отвечать на сообщения
    Вы не можете редактировать свои сообщения
    Вы не можете удалять свои сообщения
    Вы не можете голосовать в опросах
    Вы не можете прикреплять файлы к сообщениям
    Вы можете скачивать файлы