Ссылка на приватное зеркало нашего сайта всего за 1$. Внимание количество ограничено!!!

2 сезон

iTunes

1 сезон

1

2 сезон

2 сезон

iTunes

1 сезон

RePack

30

Ultimate

ВАЖНО

ИГРА 18+

pack

RePack

MK11
pack

Забери бонус

RePack

jed

!!Акция!!

Alien_Rage

RePack

fifa19

RePack

Assassins Creed: Odyssey

RePack

NEED FOR SPEED™ PAYBACK

4 сезон

9 сезон

Бесстыжие 9 сезон

Все сериалы

все сериалы на PB.wtf

RePack

FAR CRY 5
  

Большие надежды / Great Expectations (Альфонсо Куарон) [1998, мелодрама, драма, WEB-DL 1080p] 2xMVO + 2xAVO - KORSAR pb.wtf

Большие надежды через торрент pb.wtf

Размер: 9.64 GB | Добавлен: 1 год 2 мес. назад | Торрент скачан:42 раза
Скачать  

24-09-2019 10:47 Большие надежды Скачать торрент  

Большие надежды / Great Expectations
Год выпуска: 1998
Страна: США
Жанр: Мелодрама, драма
Продолжительность: 01:51:17
Перевод: Профессиональный многоголосый, авторский одноголосый
Субтитры: Русские, английские
Режиссёр: Альфонсо Куарон
В ролях: Итан Хоук, Гвинет Пэлтроу, Хэнк Азария, Крис Купер, Энн Бэнкрофт, Роберт Де Ниро, Джош Мостел, Ким Диккенс, Нелл Кэмпбелл, Гэбриел Манн
Описание: Когда юный Финн впервые увидел прекрасную Эстеллу, сердце его разбилось. Несмотря на предсказание, гласящее о том, что страсть к Эстелле не принесет ему ничего хорошего, Финн поклялся завоевать прекрасную девушку... Годы спустя, стараниями таинственного благодетеля, молодой художник Финн оказывается в Нью-Йорке, где опять встречает свою неразделенную любовь. Но в тот самый момент, когда Финн снова увидит свою возлюбленную, сбудутся все его самые смелые мечты, как впрочем и самые сокровенные страхи.

rating

Качество: WEB-DL 1080p
Формат: MKV
Видео: MPEG-4 AVC, 10200 Кбит/сек, 1920x816, 23.976 кадра/сек
Аудио 1: Russian: AC3, 6 ch, 448 Кбит/сек - MVO, R5
Аудио 2: Russian: AC3, 6 ch, 448 Кбит/сек - MVO
Аудио 3: Russian: AC3, 6 ch, 384 Кбит/сек - AVO, Ю. Живов
Аудио 4: Russian: AC3, 2 ch, 192 Кбит/сек - AVO, А. Кашкин
Аудио 5: English: AC3, 6 ch, 448 Кбит/сек - Оригинал

Релиз от:


Общее
Уникальный идентификатор : 244690047483229844537839769609848841826 (0xB81596C5B2F77D95B0018AE75D796662)
Полное имя : Большие.надежды.1998.WEB-DL.1080p.mkv
Формат : Matroska
Версия формата : Version 2
Размер файла : 9,64 Гбайт
Продолжительность : 1 ч. 51 м.
Режим общего битрейта : Переменный
Общий поток : 12,4 Мбит/сек
Дата кодирования : UTC 2019-01-22 08:02:02
Программа кодирования : mkvmerge v5.8.0 ('No Sleep / Pillow') built on Sep 2 2012 15:37:04
Библиотека кодирования : libebml v1.2.3 + libmatroska v1.3.0

Видео
Идентификатор : 1
Формат : AVC
Формат/Информация : Advanced Video Codec
Профиль формата : High@L4
Настройки формата : CABAC / 4 Ref Frames
Параметр CABAC формата : Да
Параметр RefFrames формата : 4 кадра
Идентификатор кодека : V_MPEG4/ISO/AVC
Продолжительность : 1 ч. 51 м.
Вид битрейта : Переменный
Битрейт : 10,2 Мбит/сек
Максимальный битрейт : 15,0 Мбит/сек
Ширина : 1920 пикселей
Высота : 816 пикселей
Соотношение сторон : 2,35:1
Режим частоты кадров : Постоянный
Частота кадров : 23,976 (24000/1001) кадра/сек
Цветовое пространство : YUV
Субдискретизация насыщенности : 4:2:0
Битовая глубина : 8 бит
Тип развёртки : Прогрессивная
Бит/(Пиксели*Кадры) : 0.272
Размер потока : 7,96 Гбайт (83%)
Библиотека кодирования : x264 core 148 r2623 d5b2374
Настройки программы : cabac=1 / ref=4 / deblock=1:-1:-1 / analyse=0x3:0x133 / me=umh / subme=9 / psy=1 / psy_rd=1.00:0.15 / mixed_ref=1 / me_range=24 / chroma_me=1 / trellis=2 / 8x8dct=1 / cqm=0 / deadzone=21,11 / fast_pskip=1 / chroma_qp_offset=-3 / threads=25 / lookahead_threads=4 / sliced_threads=0 / nr=150 / decimate=1 / interlaced=0 / bluray_compat=0 / constrained_intra=0 / bframes=8 / b_pyramid=2 / b_adapt=2 / b_bias=0 / direct=3 / weightb=1 / open_gop=0 / weightp=2 / keyint=120 / keyint_min=61 / scenecut=0 / intra_refresh=0 / rc_lookahead=120 / rc=crf / mbtree=1 / crf=18.0 / qcomp=0.60 / qpmin=0 / qpmax=69 / qpstep=4 / vbv_maxrate=15000 / vbv_bufsize=31250 / crf_max=0.0 / nal_hrd=vbr / filler=0 / ip_ratio=1.40 / aq=3:1.00
Язык : English
По умолчанию : Да
Принудительно : Нет
Цветовой диапазон : Limited
Основные цвета : BT.709
Характеристики трансфера : BT.709
Коэффициенты матрицы : BT.709

Аудио #1
Идентификатор : 2
Формат : AC-3
Формат/Информация : Audio Coding 3
Идентификатор кодека : A_AC3
Продолжительность : 1 ч. 51 м.
Вид битрейта : Постоянный
Битрейт : 448 Кбит/сек
Каналы : 6 каналов
Расположение каналов : Front: L C R, Side: L R, LFE
Частота : 48,0 КГц
Частота кадров : 31,250 кадров/сек (1536 SPF)
Битовая глубина : 16 бит
Метод сжатия : С потерями
Размер потока : 357 Мбайт (4%)
Заголовок : MVO | R5
Язык : Russian
По умолчанию : Да
Принудительно : Нет

Аудио #2
Идентификатор : 3
Формат : AC-3
Формат/Информация : Audio Coding 3
Идентификатор кодека : A_AC3
Продолжительность : 1 ч. 51 м.
Вид битрейта : Постоянный
Битрейт : 448 Кбит/сек
Каналы : 6 каналов
Расположение каналов : Front: L C R, Side: L R, LFE
Частота : 48,0 КГц
Частота кадров : 31,250 кадров/сек (1536 SPF)
Битовая глубина : 16 бит
Метод сжатия : С потерями
Размер потока : 357 Мбайт (4%)
Заголовок : MVO
Язык : Russian
По умолчанию : Нет
Принудительно : Нет

Аудио #3
Идентификатор : 4
Формат : AC-3
Формат/Информация : Audio Coding 3
Идентификатор кодека : A_AC3
Продолжительность : 1 ч. 51 м.
Вид битрейта : Постоянный
Битрейт : 384 Кбит/сек
Каналы : 6 каналов
Расположение каналов : Front: L C R, Side: L R, LFE
Частота : 48,0 КГц
Частота кадров : 31,250 кадров/сек (1536 SPF)
Битовая глубина : 16 бит
Метод сжатия : С потерями
Размер потока : 306 Мбайт (3%)
Заголовок : AVO | Ю. Живов
Язык : Russian
По умолчанию : Нет
Принудительно : Нет

Аудио #4
Идентификатор : 5
Формат : AC-3
Формат/Информация : Audio Coding 3
Идентификатор кодека : A_AC3
Продолжительность : 1 ч. 51 м.
Вид битрейта : Постоянный
Битрейт : 192 Кбит/сек
Каналы : 2 канала
Расположение каналов : Front: L R
Частота : 48,0 КГц
Частота кадров : 31,250 кадров/сек (1536 SPF)
Битовая глубина : 16 бит
Метод сжатия : С потерями
Размер потока : 153 Мбайт (2%)
Заголовок : AVO | А. Кашкин
Язык : Russian
По умолчанию : Нет
Принудительно : Нет

Аудио #5
Идентификатор : 6
Формат : AC-3
Формат/Информация : Audio Coding 3
Идентификатор кодека : A_AC3
Продолжительность : 1 ч. 51 м.
Вид битрейта : Постоянный
Битрейт : 448 Кбит/сек
Каналы : 6 каналов
Расположение каналов : Front: L C R, Side: L R, LFE
Частота : 48,0 КГц
Частота кадров : 31,250 кадров/сек (1536 SPF)
Битовая глубина : 16 бит
Метод сжатия : С потерями
Размер потока : 357 Мбайт (4%)
Заголовок : Original
Язык : English
По умолчанию : Нет
Принудительно : Нет

Текст #1
Идентификатор : 7
Формат : UTF-8
Идентификатор кодека : S_TEXT/UTF8
Идентификатор кодека/Информация : UTF-8 Plain Text
Заголовок : R5
Язык : Russian
По умолчанию : Нет
Принудительно : Нет

Текст #2
Идентификатор : 8
Формат : UTF-8
Идентификатор кодека : S_TEXT/UTF8
Идентификатор кодека/Информация : UTF-8 Plain Text
Заголовок : never again
Язык : Russian
По умолчанию : Нет
Принудительно : Нет

Текст #3
Идентификатор : 9
Формат : UTF-8
Идентификатор кодека : S_TEXT/UTF8
Идентификатор кодека/Информация : UTF-8 Plain Text
Язык : English
По умолчанию : Нет
Принудительно : Нет

Текст #4
Идентификатор : 10
Формат : UTF-8
Идентификатор кодека : S_TEXT/UTF8
Идентификатор кодека/Информация : UTF-8 Plain Text
Заголовок : SDH
Язык : English
По умолчанию : Нет
Принудительно : Нет

Меню
00:00:00.000 : en:Main Titles
00:03:02.191 : en:The Fugitive
00:13:39.191 : en:The Land Time Forgot
00:16:59.191 : en:She Wants Finn . . .
00:19:02.191 : en:Miss Dinsmoor
00:26:45.191 : en:That First Kiss
00:28:58.191 : en:Estella's Escort
00:37:41.191 : en:Miss Dinsmoor's Theory
00:40:57.191 : en:The Secret Benefactor
00:46:15.191 : en:New York
00:48:41.191 : en:And Here We Are . . .
00:53:25.191 : en:A Portrait of Estella
00:59:24.191 : en:Perfect Together
01:02:13.191 : en:Born Again
01:06:34.191 : en:He Wants to Marry Me . . .
01:08:38.191 : en:The Lovers' Dance
01:14:54.191 : en:Here Comes Success
01:22:14.191 : en:The Broken Heart
01:26:39.191 : en:Arthur Lustig
01:37:01.191 : en:The One Good Thing
01:40:33.191 : en:Going Home
01:45:43.191 : en:End Titles
pb.wtf



Скачать Большие надежды через торрент https://i4.imageban.ru/out/2019/09/24/e6d392d9d6fa4e3477dd1dae21203d3b.jpg Скачать фильм Большие надежды через торрент бесплантно в хорошем качестве Описание: Когда юный Финн впервые увидел прекрасную Эстеллу, сердце его разбилось. Несмотря на предсказание, гласящее о том, что страсть к ... 10 10 3
Info! Золотая раздача, скачанное не засчитывается.
Торрент: Зарегистрирован [2019-09-24 10:47] · скачан: 42 раз
Статус: √ проверено
Размер: 9.64 GB
Как cкачать? Как скачать Большие надежды через торрент | qTorrent

28-11-2019 20:33  

Отключить всю рекламу на сайте

    Дорогой пользователь! Огромная просьба, поблагодарите релизера, оцените раздачу и оставьте свои комментарий, если Вы скачали Большие надежды через торрент бесплатно! Внесите свою лепту в развитие PiratBit!
    Комментировать посты могут только пользователи прошедшие не сложную регистрацию
    Показать сообщения:    

    Большие надежды через торрент
    Скачать бесплатно Большие надежды
    Большие надежды скачать торрент
    Большие надежды смотреть онлайн
    Cкачать фильм Большие надежды бесплатно
    Большие надежды скачать торрент в хорошем качестве
    Большие надежды смотреть онлайн бесплатно в хорошем качестве


    Вы не можете начинать темы
    Вы не можете отвечать на сообщения
    Вы не можете редактировать свои сообщения
    Вы не можете удалять свои сообщения
    Вы не можете голосовать в опросах
    Вы не можете прикреплять файлы к сообщениям
    Вы можете скачивать файлы