Ссылка на приватное зеркало нашего сайта всего за 1$. Внимание количество ограничено!!!

2 сезон

iTunes

1 сезон

1

2 сезон

2 сезон

iTunes

1 сезон

RePack

30

Ultimate

ВАЖНО

ИГРА 18+

pack

RePack

MK11
pack

Забери бонус

RePack

jed

!!Акция!!

Alien_Rage

RePack

fifa19

RePack

Assassins Creed: Odyssey

RePack

NEED FOR SPEED™ PAYBACK

4 сезон

9 сезон

Бесстыжие 9 сезон

Все сериалы

все сериалы на PB.wtf

RePack

FAR CRY 5
  

Человек будущего / The Tomorrow Man (Ноубл Линкольн Джонс) [2019, драма, мелодрама, WEB-DL 1080p] MVO [iTunes] pb.wtf

Человек будущего через торрент pb.wtf

Размер: 3.43 GB | Добавлен: 1 год 2 мес. назад | Торрент скачан:53 раза
Скачать  

24-09-2019 12:26 Человек будущего Скачать торрент  

Человек будущего / The Tomorrow Man
Год выпуска: 2019
Страна: США
Жанр: драма, мелодрама
Продолжительность: 01:35:18
Перевод: Профессиональный многоголосый | iTunes
Субтитры: Русские (Full), английские

Режиссер: Ноубл Линкольн Джонс

rating

В ролях: Джон Литгоу, Блайт Даннер, Дерек Сесил, Кэтрин Аселтон, Софи Тэтчер, Ив Харлоу, Уэнди Маккена, Изабель Бони, Шон М. Эсслер, Энтони Лафорнара

Описание: Эду Хемслеру давно за шестьдесят, он ведет жизнь одинокого пенсионера и верит в наступление скорого конца света. Эд одержим идеей приготовиться к апокалипсису и поэтому обустраивает во дворе надежное убежище, не жалея денег на пополнение запасов. Несмотря на старческие причуды, сердце Эда оказывается достаточно молодо для новой любви. Однажды в магазине он встречает свою ровесницу Ронни и влюбляется, как юноша. Кажется, что у них нет ничего общего, кроме одиночества, но их знакомство получает продолжение. У Ронни своя травма – она потеряла дочь, ради которой жила. Благодаря Эду она вырывается из ловушки воспоминаний и, в свою очередь, помогает ему освободиться от страха перед будущим.

Качество: WEB-DL 1080p
Формат: MKV

Видео: MPEG-4 AVC, 1920x800, 4129 Kbit/s, 23.976 fps
Аудио#1: 48 kHz, AC3, 5.1, 384 Kbps | iTunes | RUS |
Аудио#2: 48 kHz, E-AC3, 5.1, 640 Kbps | Оригинал | ENG |
скриншот  скриншот  скриншот  скриншот  скриншот  

General
Unique ID : 311665556146405229378861504954654902932 (0xEA789A4BF73F84600F56AE4F6E39CA94)
Complete name : D:Video111The.Tomorrow.Man.2019.AMZN.WEB-DL.1080p.seleZen.mkv
Format : Matroska
Format version : Version 4
File size : 3.43 GiB
Duration : 1 h 35 min
Overall bit rate : 5 155 kb/s
Movie name : The Tomorrow Man 2019 from селезень
Encoded date : UTC 2019-09-24 12:07:35
Writing application : mkvmerge v22.0.0 ('At The End Of The World') 64-bit
Writing library : libebml v1.3.5 + libmatroska v1.4.8

Video
ID : 1
Format : AVC
Format/Info : Advanced Video Codec
Format profile : High@L4
Format settings : CABAC / 4 Ref Frames
Format settings, CABAC : Yes
Format settings, Reference : 4 frames
Codec ID : V_MPEG4/ISO/AVC
Duration : 1 h 35 min
Bit rate mode : Constant
Bit rate : 4 129 kb/s
Nominal bit rate : 10 000 kb/s
Width : 1 920 pixels
Height : 800 pixels
Display aspect ratio : 2.40:1
Frame rate mode : Constant
Frame rate : 23.976 (24000/1001) FPS
Color space : YUV
Chroma subsampling : 4:2:0
Bit depth : 8 bits
Scan type : Progressive
Bits/(Pixel*Frame) : 0.112
Stream size : 2.75 GiB (80%)
Language : English
Default : Yes
Forced : No
Color range : Limited
Color primaries : BT.709
Transfer characteristics : BT.709
Matrix coefficients : BT.709

Audio #1
ID : 2
Format : AC-3
Format/Info : Audio Coding 3
Commercial name : Dolby Digital
Codec ID : A_AC3
Duration : 1 h 35 min
Bit rate mode : Constant
Bit rate : 384 kb/s
Channel(s) : 6 channels
Channel layout : L R C LFE Ls Rs
Sampling rate : 48.0 kHz
Frame rate : 31.250 FPS (1536 SPF)
Bit depth : 16 bits
Compression mode : Lossy
Stream size : 262 MiB (7%)
Title : iTunes
Language : Russian
Service kind : Complete Main
Default : Yes
Forced : Yes

Audio #2
ID : 3
Format : E-AC-3
Format/Info : Enhanced AC-3
Commercial name : Dolby Digital Plus
Codec ID : A_EAC3
Duration : 1 h 35 min
Bit rate mode : Constant
Bit rate : 640 kb/s
Channel(s) : 6 channels
Channel layout : L R C LFE Ls Rs
Sampling rate : 48.0 kHz
Frame rate : 31.250 FPS (1536 SPF)
Compression mode : Lossy
Stream size : 436 MiB (12%)
Title : Original
Language : English
Service kind : Complete Main
Default : No
Forced : No

Text #1
ID : 4
Format : UTF-8
Codec ID : S_TEXT/UTF8
Codec ID/Info : UTF-8 Plain Text
Duration : 1 h 33 min
Bit rate : 73 b/s
Count of elements : 1010
Stream size : 50.7 KiB (0%)
Title : Full
Language : Russian
Default : No
Forced : No

Text #2
ID : 5
Format : UTF-8
Codec ID : S_TEXT/UTF8
Codec ID/Info : UTF-8 Plain Text
Duration : 1 h 29 min
Bit rate : 44 b/s
Count of elements : 941
Stream size : 29.3 KiB (0%)
Title : Full
Language : English
Default : No
Forced : No

Text #3
ID : 6
Format : UTF-8
Codec ID : S_TEXT/UTF8
Codec ID/Info : UTF-8 Plain Text
Duration : 1 h 30 min
Bit rate : 47 b/s
Count of elements : 1044
Stream size : 31.7 KiB (0%)
Title : SDH
Language : English
Default : No
Forced : No

Menu
00:00:00.000 : en:1
00:03:38.760 : en:2
00:08:06.819 : en:3
00:12:01.762 : en:4
00:18:14.633 : en:5
00:25:12.174 : en:6
00:29:46.697 : en:7
00:33:44.434 : en:8
00:38:55.620 : en:9
00:44:49.931 : en:10
00:50:45.327 : en:11
00:56:43.350 : en:12
01:00:41.004 : en:13
01:05:27.790 : en:14
01:10:51.530 : en:15
01:15:50.620 : en:16
01:20:19.721 : en:17
01:23:18.398 : en:18
01:27:52.630 : en:19
01:32:15.184 : en:20

pb.wtf



Скачать Человек будущего через торрент https://d.radikal.ru/d42/1909/95/6524a04afc68.jpg Скачать фильм Человек будущего через торрент бесплантно в хорошем качестве Описание: Эду Хемслеру давно за шестьдесят, он ведет жизнь одинокого пенсионера и верит в наступление скорого конца света. Эд одержим идеей ... 10 10 5
Торрент: Зарегистрирован [2019-09-24 12:26] · скачан: 53 раз
Статус: √ проверено
Размер: 3.43 GB
Как cкачать? Как скачать Человек будущего через торрент | qTorrent

% Раздел Тема Автор DL S | L
Фильмы 2019-2020 [DVDrip, WEB-DLRip, HDrip] (DUB, MVO) [ 709 MB ] Человек будущего / The Tomorrow Man [2019 WEB-DLRip многоголосый закадровый ""] coc900 Скачать
1 | 0
Фильмы 2019-2020 [DVDrip, WEB-DLRip, HDrip] (DUB, MVO) [ 1.46 GB ] Человек будущего / The Tomorrow Man [2019 WEB-DLRip] MVO bober100 Скачать
1 | 0

28-11-2019 20:33  

Отключить всю рекламу на сайте

    Дорогой пользователь! Огромная просьба, поблагодарите релизера, оцените раздачу и оставьте свои комментарий, если Вы скачали Человек будущего через торрент бесплатно! Внесите свою лепту в развитие PiratBit!
    Комментировать посты могут только пользователи прошедшие не сложную регистрацию
    Показать сообщения:    

    Человек будущего через торрент
    Скачать бесплатно Человек будущего
    Человек будущего скачать торрент
    Человек будущего смотреть онлайн
    Cкачать фильм Человек будущего бесплатно
    Человек будущего скачать торрент в хорошем качестве
    Человек будущего смотреть онлайн бесплатно в хорошем качестве


    Вы не можете начинать темы
    Вы не можете отвечать на сообщения
    Вы не можете редактировать свои сообщения
    Вы не можете удалять свои сообщения
    Вы не можете голосовать в опросах
    Вы не можете прикреплять файлы к сообщениям
    Вы можете скачивать файлы