Всегда рабочее зеркало без VPN и Proxy просто перед .vidak.icu напиши любое слово или цифру, Пример http://3fx8.vidak.icu

MVO

2 сезон

1 сезон

1

1 сезон

iTunes

2 сезон

13

1 сезон

Распродажа

pack

Рекомендуем

Пиратка

30

ВАЖНО

RePack

MK11

RePack

jed

RePack

fifa19

RePack

RDR2

RePack

NEED FOR SPEED™ PAYBACK

Кинопоиск HD

6 сезон

 Острые козырьки 6 сезон

Все сериалы

все сериалы на PB.wtf

RePack

FAR CRY 5

Anonymous, нам критически не хватает 5601 руб. на оплату серверов и переферии за Апрель, помоги нам пожалуйста, вся надежда только на тебя. В благодарность мы отключим тебе всю рекламу на сайте!

×
  
Magnet ссылка

Джон Уик 3 / John Wick: Chapter 3 - Parabellum (Чад Стахелски) [2019, боевик, триллер, криминал, BDRip 720p] Dub, AVO, MVO, Sub [Rus] - ExKinoRay pb.wtf

Джон Уик 3 через торрент pb.wtf

Раздают: 5 [ 0 KB/s ]
Размер: 7.38 GB | Добавлен: 2 года 8 мес. назад | Торрент скачан:502 раза
Смотреть онлайн Джон Уик 3 | Скачать    Ребята, помогите собрать деньги на оплату серверов!!!

24-09-2019 14:17 Джон Уик 3 Скачать торрент  

Название: Джон Уик 3
Оригинальное название: John Wick: Chapter 3 - Parabellum
Год выпуска: 2019
Жанр: Боевик, триллер, криминал
Режиссер: Чад Стахелски
В ролях: Киану Ривз, Холли Берри, Иэн МакШейн, Лоуренс Фишборн, Марк Дакаскос, Азия Диллон, Лэнс Реддик, Тобиаш Сигал, Анжелика Хьюстон, Саид Тагмауи

О фильме: В центре сюжета находится Джон Уик — опытный наемный киллер, который убил члена международной гильдии ассасинов, тем самым нарушив профессиональный кодекс, за что был приговорен к смерти. Несмотря на то, что Джона должны были казнить немедленно, ему удалось получить час отсрочки, перед тем, как наемник был признан отступником, отрезанным от гильдии и бывших коллег. И теперь за его голову назначено вознаграждение в 14 миллионов долларов, а десятки самых опасных убийц не остановятся ни перед чем, ведя кровавую охоту на легендарного киллера...

rating

Выпущено: США, Summit Entertainment, 87Eleven, Lionsgate
Продолжительность: 02:10:45
Перевод: Дублированный | [iTunes]
Профессиональный многоголосый | [HDRezka Studio]
Авторский | Д. Есарев

*** Видеоряд без хардсаба.

Формат: MKV
Качество: BDRip 720p
Видео: MPEG-4 AVC, 1280x534 (2.40:1), 23.976 fps, 5500 Kbps, 0.336 bit/pixel
Аудио 1: 48 kHz, AC3, 5.1, 384 Kbps | Dub | RUS |
Аудио 2: 48 kHz, AC3, 5.1, 448 Kbps | MVO | RUS |
Аудио 3: 48 kHz, DTS, 5.1, 1509 Kbps | Есарев | RUS |
Аудио 4: 48 kHz, AC3, 5.1, 640 Kbps | Оригинал | ENG |
Субтитры: Русские (форсированные и полные (Enigma), FOCS), английские (full)
General
Unique ID : 242921316140949261658216610814853952163 (0xB6C0F195932A1962A64BB2595F08B2A3)
Complete name : F:\John.Wick.Chapter.3.BDREMUX.1080p\John.Wick.Chapter.3.BDREMUX.1080p.mkv.mkv720 (1).mkv
Format : Matroska
Format version : Version 2
File size : 7.38 GiB
Duration : 2 h 10 min
Overall bit rate : 8 081 kb/s
Movie name : John Wick Chapter 3 2019 from ExKinoRay
Encoded date : UTC 2019-09-24 12:11:07
Writing application : mkvmerge v5.6.0 ('Kenya Kane') built on May 27 2012 16:44:04
Writing library : libebml v1.2.3 + libmatroska v1.3.0

Video
ID : 1
Format : AVC
Format/Info : Advanced Video Codec
Format profile : High@L4.1
Format settings, CABAC : Yes
Format settings, ReFrames : 12 frames
Codec ID : V_MPEG4/ISO/AVC
Duration : 2 h 10 min
Bit rate : 5 100 kb/s
Width : 1 280 pixels
Height : 534 pixels
Display aspect ratio : 2.40:1
Frame rate mode : Constant
Frame rate : 23.976 (24000/1001) FPS
Color space : YUV
Chroma subsampling : 4:2:0
Bit depth : 8 bits
Scan type : Progressive
Bits/(Pixel*Frame) : 0.311
Stream size : 4.51 GiB (61%)
Title : Enigma
Writing library : x264 core 157 r2935 545de2f
Encoding settings : cabac=1 / ref=12 / deblock=1:-3:-3 / analyse=0x3:0x113 / me=umh / subme=11 / psy=1 / psy_rd=1.00:0.00 / mixed_ref=1 / me_range=32 / chroma_me=1 / trellis=2 / 8x8dct=1 / cqm=0 / deadzone=21,11 / fast_pskip=0 / chroma_qp_offset=-2 / threads=12 / lookahead_threads=2 / sliced_threads=0 / nr=0 / decimate=1 / interlaced=0 / bluray_compat=0 / constrained_intra=0 / bframes=9 / b_pyramid=2 / b_adapt=2 / b_bias=0 / direct=3 / weightb=1 / open_gop=0 / weightp=2 / keyint=240 / keyint_min=23 / scenecut=40 / intra_refresh=0 / rc_lookahead=40 / rc=2pass / mbtree=0 / bitrate=5100 / ratetol=1.0 / qcomp=0.65 / qpmin=0 / qpmax=51 / qpstep=4 / cplxblur=20.0 / qblur=0.5 / vbv_maxrate=62500 / vbv_bufsize=78125 / nal_hrd=none / filler=0 / ip_ratio=1.40 / pb_ratio=1.30 / aq=3:0.90
Default : Yes
Forced : No
Color range : Limited
Color primaries : BT.709
Transfer characteristics : BT.709
Matrix coefficients : BT.709

Audio #1
ID : 2
Format : AC-3
Format/Info : Audio Coding 3
Mode extension : CM (complete main)
Format settings, Endianness : Big
Codec ID : A_AC3
Duration : 2 h 10 min
Bit rate mode : Constant
Bit rate : 384 kb/s
Channel(s) : 6 channels
Channel positions : Front: L C R, Side: L R, LFE
Sampling rate : 48.0 kHz
Frame rate : 31.250 FPS (1536 spf)
Compression mode : Lossy
Stream size : 359 MiB (5%)
Title : Dub [iTunes]
Language : Russian
Default : Yes
Forced : Yes

Audio #2
ID : 3
Format : AC-3
Format/Info : Audio Coding 3
Mode extension : CM (complete main)
Format settings, Endianness : Big
Codec ID : A_AC3
Duration : 2 h 10 min
Bit rate mode : Constant
Bit rate : 448 kb/s
Channel(s) : 6 channels
Channel positions : Front: L C R, Side: L R, LFE
Sampling rate : 48.0 kHz
Frame rate : 31.250 FPS (1536 spf)
Compression mode : Lossy
Stream size : 419 MiB (6%)
Title : MVO [HDRezka Studio]
Language : Russian
Default : No
Forced : No

Audio #3
ID : 4
Format : DTS
Format/Info : Digital Theater Systems
Mode : 16
Format settings, Endianness : Big
Codec ID : A_DTS
Duration : 2 h 10 min
Bit rate mode : Constant
Bit rate : 1 509 kb/s
Channel(s) : 6 channels
Channel positions : Front: L C R, Side: L R, LFE
Sampling rate : 48.0 kHz
Frame rate : 93.750 FPS (512 spf)
Bit depth : 24 bits
Compression mode : Lossy
Stream size : 1.38 GiB (19%)
Title : AVO [Yesarev]
Language : Russian
Default : No
Forced : No

Audio #4
ID : 5
Format : AC-3
Format/Info : Audio Coding 3
Mode extension : CM (complete main)
Format settings, Endianness : Big
Codec ID : A_AC3
Duration : 2 h 10 min
Bit rate mode : Constant
Bit rate : 640 kb/s
Channel(s) : 6 channels
Channel positions : Front: L C R, Side: L R, LFE
Sampling rate : 48.0 kHz
Frame rate : 31.250 FPS (1536 spf)
Compression mode : Lossy
Stream size : 599 MiB (8%)
Title : Original
Language : English
Default : No
Forced : No

Text #1
ID : 6
Format : UTF-8
Codec ID : S_TEXT/UTF8
Codec ID/Info : UTF-8 Plain Text
Title : Forced (Enigma)
Language : Russian
Default : Yes
Forced : No

Text #2
ID : 7
Format : UTF-8
Codec ID : S_TEXT/UTF8
Codec ID/Info : UTF-8 Plain Text
Title : Forced
Language : Russian
Default : No
Forced : No

Text #3
ID : 8
Format : UTF-8
Codec ID : S_TEXT/UTF8
Codec ID/Info : UTF-8 Plain Text
Title : Full (Enigma)
Language : Russian
Default : No
Forced : No

Text #4
ID : 9
Format : UTF-8
Codec ID : S_TEXT/UTF8
Codec ID/Info : UTF-8 Plain Text
Title : Full (Foks)
Language : Russian
Default : No
Forced : No

Text #5
ID : 10
Format : UTF-8
Codec ID : S_TEXT/UTF8
Codec ID/Info : UTF-8 Plain Text
Title : Full
Language : English
Default : No
Forced : No

Menu
00:00:00.000 : en:00:00:00.000
00:09:35.200 : en:00:09:35.200
00:23:38.751 : en:00:23:38.751
00:31:25.300 : en:00:31:25.300
00:37:50.310 : en:00:37:50.310
00:50:45.668 : en:00:50:45.668
01:02:55.438 : en:01:02:55.438
01:14:26.671 : en:01:14:26.671
01:26:14.211 : en:01:26:14.211
01:37:03.192 : en:01:37:03.192
01:49:29.062 : en:01:49:29.062
01:59:50.433 : en:01:59:50.433


Релиз от:

Автор релиза: pb.wtf



Скачать Джон Уик 3 через торрент https://d.radikal.ru/d05/1907/b8/1064b06d01a1.jpg Скачать, смотреть онлайн Джон Уик 3 бесплантно в хорошем качестве О фильме: В центре сюжета находится Джон Уик — опытный наемный киллер, который убил члена международной гильдии ассасинов, тем самым ... 9.8 10 9
Info! Золотая раздача, скачанное не засчитывается.
Торрент: Зарегистрирован [2019-09-24 14:17] · скачан: 502 раз
Статус: √ проверено
Размер: 7.38 GB
Как cкачать? Как скачать Джон Уик 3 через торрент | UTorrent

% Раздел Тема Автор DL S | L
Фильмы [HD 720p, 1080p] (Хороший звук DUB, MVO) [ 6.14 GB ] Джон Уик 3 / John Wick: Chapter 3 - Parabellum [2019 BDRip 720p] Dub MVO Sub [Rus] - ExKinoRay Enigma2010 Скачать
2 | 0

28-11-2019 20:33  

Отключить всю рекламу на сайте

28-09-2019 13:40 Джон Уик 3 Скачать торрент  

Спасибо за рип! Фильм хорош, как и прошлые части! Актеры сыграли отлично! Советую к просмотру.pb.wtf



    Дорогой пользователь! Огромная просьба, поблагодарите релизера, оцените раздачу и оставьте свои комментарий, если Вы скачали Джон Уик 3 через торрент бесплатно!
    Комментировать посты могут только пользователи прошедшие не сложную регистрацию
    Показать сообщения:    

    Джон Уик 3 через торрент
    Скачать бесплатно Джон Уик 3
    Джон Уик 3 скачать торрент
    Джон Уик 3 смотреть онлайн
    Cкачать фильм Джон Уик 3 бесплатно
    Джон Уик 3 скачать торрент в хорошем качестве
    Джон Уик 3 смотреть онлайн бесплатно в хорошем качестве


    Вы не можете начинать темы
    Вы не можете отвечать на сообщения
    Вы не можете редактировать свои сообщения
    Вы не можете удалять свои сообщения
    Вы не можете голосовать в опросах
    Вы не можете прикреплять файлы к сообщениям
    Вы можете скачивать файлы