новый адрес
Мега распродажа FORZA HORIZON 4 ULTIMATE+ВСЕ DLC+ОНЛАЙН всего за 499р. 349 руб. (супер цена). Внимание количество ограничено!!!

iTunes

1+1

iTunes

мы

iTunes

1

iTunes

Чернобыль

iTunes

Ральф против интернета

Лицензия

ПШазам

Лицензия

Игра престолов

Лицензия

30
pack

ВАЖНО

!!Акция!!

Alien_RageХит недели

RePack

Resident Evil 21

ИГРА 18+

pack

RePack

Metro:Exodus

!!Акция!!

Alien_Rage

RePack

fifa19

RePack

Assassins Creed: Odyssey

RePack

NEED FOR SPEED™ PAYBACK

3 сезон

9 сезон

Бесстыжие 9 сезон

Все сериалы

все сериалы на PB.wtf

RePack

FAR CRY 5
Ребята, катастрофически не хватает 1900р. для оплаты серверов за Октябрь (всвязи с блокировками трафик упал в 3 раза), 1-2р., выручайте.
  

Человек, который убил Гитлера и затем снежного человека / The Man Who Killed Hitler and Then The Bigfoot (Роберт Д. Кржиковски) [2018, Фантастика, драма, приключения, военный, BDRip] DUB [iTunes] pb.wtf

Человек, который убил Гитлера и затем снежного человека через торрент pb.wtf

Раздают: 16 [ 2 KB/s ]
Размер: 1.45 GB | Добавлен: 1 мес. 23 д. назад | Торрент скачан:157 раз
Скачать  

24-09-2019 16:26 Человек, который убил Гитлера и затем снежного человека Скачать торрент  

Человек, который убил Гитлера и затем снежного человека
The Man Who Killed Hitler and Then The Bigfoot

Год выпуска: 2018
Страна: США
Жанр: Фантастика, драма, приключения, военный
Продолжительность: 01:37:40
Перевод: Дублированный | iTunes
Субтитры: отсутствуют

Режиссер: Роберт Д. Кржиковски

rating

В ролях: Сэм Эллиотт, Эйдан Тернер, Кэйтлин Фицджералд, Рон Ливингстон, Шон Бриджерс, Ларри Миллер, Эллар Колтрейн, Марк Стегер, Ризван Манжи, Анастасия Циканава и др.

Описание: Легендарный американский ветеран по имени Кельвин Барр в годы Второй мировой войны участвовал в боевых действиях и даже убил Адольфа Гитлера. Теперь же герой живёт тихой жизнью, однако страна вновь призывает его в строй. С ним связываются ФБР, чтобы выследить и уничтожить снежного человека, поскольку существо, прячущееся в глубине канадских лесов, является носителем вируса, который может вызвать эпидемию.

Качество: BDRip
Формат: AVI

Видео: Xvid 73, 720x304, ~1733 kbps, 23,976 fps
Аудио: русский, AC3, 5.1 ch, 48 kHz, 384 kbps | iTunes
скриншот  скриншот  скриншот  скриншот  скриншот  

Общее
Полное имя : G:Torrent2TheManWhoKilledHitlerandThenTheBigfootBDRip.avi
Формат : AVI
Формат/Информация : Audio Video Interleave
Профиль формата : OpenDML
Размер файла : 1,45 Гбайт
Продолжительность : 1 ч. 37 м.
Общий поток : 2129 Кбит/сек
Программа кодирования : XviD4PSP 6.0 / 53.6.0

Видео
Идентификатор : 0
Формат : MPEG-4 Visual
Профиль формата : Advanced Simple@L5
Настройки формата : BVOP1 / Custom Matrix
Параметр BVOP формата : 1
Параметр QPel формата : Нет
Параметр GMC формата : Без точки перехода
Параметр матрицы формата : Выборочная
Идентификатор кодека : XVID
Идентификатор кодека/Подсказка : XviD
Продолжительность : 1 ч. 37 м.
Битрейт : 1733 Кбит/сек
Ширина : 720 пикселей
Высота : 304 пикселя
Соотношение сторон : 2,35:1
Частота кадров : 23,976 (23976/1000) кадра/сек
Цветовое пространство : YUV
Субдискретизация насыщенности : 4:2:0
Битовая глубина : 8 бит
Тип развёртки : Прогрессивная
Метод сжатия : С потерями
Бит/(Пиксели*Кадры) : 0.330
Размер потока : 1,18 Гбайт (81%)
Библиотека кодирования : XviD 73

Аудио
Идентификатор : 1
Формат : AC-3
Формат/Информация : Audio Coding 3
Параметр Endianness формата : Big
Идентификатор кодека : 2000
Продолжительность : 1 ч. 37 м.
Вид битрейта : Постоянный
Битрейт : 384 Кбит/сек
Каналы : 6 каналов
Расположение каналов : Front: L C R, Side: L R, LFE
Частота : 48,0 КГц
Частота кадров : 31,250 кадров/сек (1536 SPF)
Битовая глубина : 16 бит
Метод сжатия : С потерями
Размер потока : 268 Мбайт (18%)
Выравнивание : Соединение по промежуткам
Продолжительность промежутка : 32 мс. (0,77 видеокадр)

pb.wtf



Скачать Человек, который убил Гитлера и затем снежного человека через торрент http://lostpix.com/thumbs/2019-09/24/n3d6iukdz5s7a0sae82bvqx2q.png Скачать фильм Человек, который убил Гитлера и затем снежного человека через торрент бесплантно в хорошем качестве Описание: Легендарный американский ветеран по имени Кельвин Барр в годы Второй мировой войны участвовал в боевых действиях и даже убил ... 8.9 10 8
Торрент: Зарегистрирован [2019-09-24 16:26] · скачан: 157 раз
Статус: √ проверено
Размер: 1.45 GB
Как cкачать? Как скачать Человек, который убил Гитлера и затем снежного человека через торрент | qTorrent

% Раздел Тема Автор DL S | L
Фильмы 2018 [DVDrip, WEB-DLRip, HDrip] (DUB, MVO) [ 2.04 GB ] Человек который убил Гитлера и затем снежного человека / The Man Who Killed Hitler and Then The Bigfoot [2018 военный BDRip-AVC] +MVO [HDRezka Studio] bober100 Скачать
7 | 0
Фильмы [HD 720p, 1080p] (Хороший звук DUB, MVO) [ 6.71 GB ] Человек который убил Гитлера и затем снежного человека / The Man Who Killed Hitler and Then The Bigfoot [2018 военный BDRip 1080p] +MVO [HDRezka Studio] bober100 Скачать
3 | 0
Фильмы [HD 720p, 1080p] (Хороший звук DUB, MVO) [ 3.83 GB ] Человек который убил Гитлера и затем снежного человека / The Man Who Killed Hitler and Then The Bigfoot [2018 военный BDRip 720p] +MVO [HDRezka Studio] bober100 Скачать
1 | 0
T Фильмы 2018 [DVDrip, WEB-DLRip, HDrip] (DUB, MVO) [ 746 MB ] Человек который убил Гитлера и затем снежного человека / The Man Who Killed Hitler and Then The Bigfoot [2018 WEB-DLRip от OlLanDGroup] [MVO] Skandar2019 Скачать
2 | 0


>> Регистрируемся здесь <<






Отзывы и комментарии о схеме читаем и пишем здесь: ---> Отзывы и комментарии о схеме

Новые благодарочки в телеграм довольных пользователей:
скриншот   скриншот   скриншот   скриншот   скриншот
    Дорогой пользователь! Огромная просьба, поблагодарите релизера, оцените раздачу и оставьте свои комментарий, если Вы скачали Человек, который убил Гитлера и затем снежного человека через торрент бесплатно! Внесите свою лепту в развитие PiratBit!
    Комментировать посты могут только пользователи прошедшие не сложную регистрацию
    Показать сообщения:    

    Человек, который убил Гитлера и затем снежного человека через торрент
    Скачать бесплатно Человек, который убил Гитлера и затем снежного человека
    Человек, который убил Гитлера и затем снежного человека скачать торрент
    Человек, который убил Гитлера и затем снежного человека смотреть онлайн
    Cкачать фильм Человек, который убил Гитлера и затем снежного человека бесплатно
    Человек, который убил Гитлера и затем снежного человека скачать торрент в хорошем качестве
    Человек, который убил Гитлера и затем снежного человека смотреть онлайн бесплатно в хорошем качестве


    Вы не можете начинать темы
    Вы не можете отвечать на сообщения
    Вы не можете редактировать свои сообщения
    Вы не можете удалять свои сообщения
    Вы не можете голосовать в опросах
    Вы не можете прикреплять файлы к сообщениям
    Вы можете скачивать файлы