Ссылка на приватное зеркало нашего сайта всего за 1$. Внимание количество ограничено!!!

2 сезон

iTunes

1 сезон

1

2 сезон

2 сезон

iTunes

1 сезон

RePack

30

Ultimate

ВАЖНО

ИГРА 18+

pack

RePack

MK11
pack

Забери бонус

RePack

jed

!!Акция!!

Alien_Rage

RePack

fifa19

RePack

Assassins Creed: Odyssey

RePack

NEED FOR SPEED™ PAYBACK

4 сезон

9 сезон

Бесстыжие 9 сезон

Все сериалы

все сериалы на PB.wtf

RePack

FAR CRY 5
  

Анна и Король / Anna and the King (Энди Теннант) [1999, драма, мелодрама, WEB-DL 1080p] DUB + 2xMVO + DVO + AVO - KORSAR pb.wtf

Анна и Король через торрент pb.wtf

Размер: 15.89 GB | Добавлен: 1 год 2 мес. назад | Торрент скачан:13 раз
Скачать  

24-09-2019 17:53 Анна и Король Скачать торрент  

Анна и Король / Anna and the King
Год выпуска: 1999
Страна: США
Жанр: Драма, мелодрама, биография, экранизация
Продолжительность: 02:28:08
Перевод: Дублированный, профессиональный многоголосый, профессиональный двухголосый, авторский одноголосый
Субтитры: Русские, английские, финские
Режиссёр: Энди Теннант
В ролях: Джоди Фостер, Чоу Юнь-Фат, Бай Лин, Том Фелтон, Сайед Алви, Рэндолл Дак Ким, Лим Кай Сю, Мелисса Кэмпбелл, Кит Чин, Мано Маниам
Описание: Школьная учительница из Англии Анна Леоноуэнс приехала учить детей короля Монгкута в экзотический Сиам. И неожиданно западная чувственность сталкивается с психологией восточного владыки. Напряжение нарастает по мере того, как Монгкут узнает о готовящемся против него и его режима заговоре. Когда политическая ситуация готова взорваться, для Анны и Короля остается только один выход — стать союзниками в отважной борьбе за спасение Сиама от могущественных врагов, жаждущих его разрушения.

rating

Качество: WEB-DL 1080p
Формат: MKV
Видео: MPEG-4 AVC, 12900 Кбит/сек, 1920x816, 23.976 кадра/сек
Аудио 1: Russian: AC3, 2 ch, 192 Кбит/сек - DUB, ФильмЛайн Интернэшнл
Аудио 2: Russian: AC3, 2 ch, 192 Кбит/сек - MVO, НТВ+
Аудио 3: Russian: AC3, 6 ch, 384 Кбит/сек - DVO
Аудио 4: Russian: AC3, 2 ch, 192 Кбит/сек - MVO
Аудио 5: Russian: AC3, 2 ch, 192 Кбит/сек - AVO, Юрий Живов
Аудио 6: Ukrainian: AC3, 6 ch, 384 Кбит/сек - MVO, TeT
Аудио 7: English: AC3, 6 ch, 448 Кбит/сек - Оригинал, DVD
Аудио 8: English: EAC3, 2 ch, 224 Кбит/сек - Оригинал, WEB

Релиз от:


Общее
Уникальный идентификатор : 190619749151041391817138139999578240320 (0x8F68073DE486E5449CF7FD9021A63540)
Полное имя : Анна.и.Король.1999.WEB-DL.1080p.mkv
Формат : Matroska
Версия формата : Version 2
Размер файла : 15,9 Гбайт
Продолжительность : 2 ч. 28 м.
Режим общего битрейта : Переменный
Общий поток : 15,4 Мбит/сек
Дата кодирования : UTC 2018-08-07 08:55:40
Программа кодирования : mkvmerge v5.8.0 ('No Sleep / Pillow') built on Sep 2 2012 15:37:04
Библиотека кодирования : libebml v1.2.3 + libmatroska v1.3.0

Видео
Идентификатор : 1
Формат : AVC
Формат/Информация : Advanced Video Codec
Профиль формата : High@L4
Настройки формата : CABAC / 4 Ref Frames
Параметр CABAC формата : Да
Параметр RefFrames формата : 4 кадра
Идентификатор кодека : V_MPEG4/ISO/AVC
Продолжительность : 2 ч. 28 м.
Вид битрейта : Переменный
Битрейт : 12,8 Мбит/сек
Максимальный битрейт : 15,0 Мбит/сек
Ширина : 1920 пикселей
Высота : 816 пикселей
Соотношение сторон : 2,35:1
Режим частоты кадров : Постоянный
Частота кадров : 23,976 (24000/1001) кадра/сек
Цветовое пространство : YUV
Субдискретизация насыщенности : 4:2:0
Битовая глубина : 8 бит
Тип развёртки : Прогрессивная
Бит/(Пиксели*Кадры) : 0.342
Размер потока : 13,3 Гбайт (84%)
Библиотека кодирования : x264 core 148 r2623 d5b2374
Настройки программы : cabac=1 / ref=4 / deblock=1:-1:-1 / analyse=0x3:0x133 / me=umh / subme=9 / psy=1 / psy_rd=1.00:0.15 / mixed_ref=1 / me_range=24 / chroma_me=1 / trellis=2 / 8x8dct=1 / cqm=0 / deadzone=21,11 / fast_pskip=1 / chroma_qp_offset=-3 / threads=25 / lookahead_threads=4 / sliced_threads=0 / nr=150 / decimate=1 / interlaced=0 / bluray_compat=0 / constrained_intra=0 / bframes=8 / b_pyramid=2 / b_adapt=2 / b_bias=0 / direct=3 / weightb=1 / open_gop=0 / weightp=2 / keyint=120 / keyint_min=61 / scenecut=0 / intra_refresh=0 / rc_lookahead=120 / rc=crf / mbtree=1 / crf=18.0 / qcomp=0.60 / qpmin=0 / qpmax=69 / qpstep=4 / vbv_maxrate=15000 / vbv_bufsize=31250 / crf_max=0.0 / nal_hrd=vbr / filler=0 / ip_ratio=1.40 / aq=3:1.00
Язык : English
По умолчанию : Да
Принудительно : Нет
Цветовой диапазон : Limited
Основные цвета : BT.709
Характеристики трансфера : BT.709
Коэффициенты матрицы : BT.709

Аудио #1
Идентификатор : 2
Формат : AC-3
Формат/Информация : Audio Coding 3
Идентификатор кодека : A_AC3
Продолжительность : 2 ч. 28 м.
Вид битрейта : Постоянный
Битрейт : 192 Кбит/сек
Каналы : 2 канала
Расположение каналов : Front: L R
Частота : 48,0 КГц
Частота кадров : 31,250 кадров/сек (1536 SPF)
Битовая глубина : 16 бит
Метод сжатия : С потерями
Размер потока : 203 Мбайт (1%)
Заголовок : DUB | ФильмЛайн Интернэшнл
Язык : Russian
По умолчанию : Да
Принудительно : Нет

Аудио #2
Идентификатор : 3
Формат : AC-3
Формат/Информация : Audio Coding 3
Идентификатор кодека : A_AC3
Продолжительность : 2 ч. 28 м.
Вид битрейта : Постоянный
Битрейт : 192 Кбит/сек
Каналы : 2 канала
Расположение каналов : Front: L R
Частота : 48,0 КГц
Частота кадров : 31,250 кадров/сек (1536 SPF)
Битовая глубина : 16 бит
Метод сжатия : С потерями
Размер потока : 203 Мбайт (1%)
Заголовок : MVO | НТВ+
Язык : Russian
По умолчанию : Нет
Принудительно : Нет

Аудио #3
Идентификатор : 4
Формат : AC-3
Формат/Информация : Audio Coding 3
Идентификатор кодека : A_AC3
Продолжительность : 2 ч. 28 м.
Вид битрейта : Постоянный
Битрейт : 384 Кбит/сек
Каналы : 6 каналов
Расположение каналов : Front: L C R, Side: L R, LFE
Частота : 48,0 КГц
Частота кадров : 31,250 кадров/сек (1536 SPF)
Битовая глубина : 16 бит
Метод сжатия : С потерями
Размер потока : 407 Мбайт (2%)
Заголовок : DVO
Язык : Russian
По умолчанию : Нет
Принудительно : Нет

Аудио #4
Идентификатор : 5
Формат : AC-3
Формат/Информация : Audio Coding 3
Идентификатор кодека : A_AC3
Продолжительность : 2 ч. 28 м.
Вид битрейта : Постоянный
Битрейт : 192 Кбит/сек
Каналы : 2 канала
Расположение каналов : Front: L R
Частота : 48,0 КГц
Частота кадров : 31,250 кадров/сек (1536 SPF)
Битовая глубина : 16 бит
Метод сжатия : С потерями
Размер потока : 203 Мбайт (1%)
Заголовок : MVO
Язык : Russian
По умолчанию : Нет
Принудительно : Нет

Аудио #5
Идентификатор : 6
Формат : AC-3
Формат/Информация : Audio Coding 3
Идентификатор кодека : A_AC3
Продолжительность : 2 ч. 28 м.
Вид битрейта : Постоянный
Битрейт : 192 Кбит/сек
Каналы : 2 канала
Расположение каналов : Front: L R
Частота : 48,0 КГц
Частота кадров : 31,250 кадров/сек (1536 SPF)
Битовая глубина : 16 бит
Метод сжатия : С потерями
Размер потока : 203 Мбайт (1%)
Заголовок : AVO | Ю. Живов
Язык : Russian
По умолчанию : Нет
Принудительно : Нет

Аудио #6
Идентификатор : 7
Формат : AC-3
Формат/Информация : Audio Coding 3
Идентификатор кодека : A_AC3
Продолжительность : 2 ч. 28 м.
Вид битрейта : Постоянный
Битрейт : 384 Кбит/сек
Каналы : 6 каналов
Расположение каналов : Front: L C R, Side: L R, LFE
Частота : 48,0 КГц
Частота кадров : 31,250 кадров/сек (1536 SPF)
Битовая глубина : 16 бит
Метод сжатия : С потерями
Размер потока : 407 Мбайт (2%)
Заголовок : MVO | ictv, TeT
Язык : Ukrainian
По умолчанию : Нет
Принудительно : Нет

Аудио #7
Идентификатор : 8
Формат : AC-3
Формат/Информация : Audio Coding 3
Идентификатор кодека : A_AC3
Продолжительность : 2 ч. 28 м.
Вид битрейта : Постоянный
Битрейт : 448 Кбит/сек
Каналы : 6 каналов
Расположение каналов : Front: L C R, Side: L R, LFE
Частота : 48,0 КГц
Частота кадров : 31,250 кадров/сек (1536 SPF)
Битовая глубина : 16 бит
Метод сжатия : С потерями
Размер потока : 475 Мбайт (3%)
Заголовок : Original | 5.1
Язык : English
По умолчанию : Нет
Принудительно : Нет

Аудио #8
Идентификатор : 9
Формат : E-AC-3
Формат/Информация : Enhanced Audio Coding 3
Идентификатор кодека : A_EAC3
Продолжительность : 2 ч. 28 м.
Вид битрейта : Постоянный
Битрейт : 224 Кбит/сек
Каналы : 2 канала
Расположение каналов : Front: L R
Частота : 48,0 КГц
Частота кадров : 187,500 кадров/сек (256 SPF)
Метод сжатия : С потерями
Размер потока : 237 Мбайт (1%)
Заголовок : Original | 2.0
Язык : English
По умолчанию : Нет
Принудительно : Нет

Текст #1
Идентификатор : 10
Формат : UTF-8
Идентификатор кодека : S_TEXT/UTF8
Идентификатор кодека/Информация : UTF-8 Plain Text
Язык : Russian
По умолчанию : Нет
Принудительно : Нет

Текст #2
Идентификатор : 11
Формат : UTF-8
Идентификатор кодека : S_TEXT/UTF8
Идентификатор кодека/Информация : UTF-8 Plain Text
Язык : English
По умолчанию : Нет
Принудительно : Нет

Текст #3
Идентификатор : 12
Формат : UTF-8
Идентификатор кодека : S_TEXT/UTF8
Идентификатор кодека/Информация : UTF-8 Plain Text
Заголовок : SDH
Язык : English
По умолчанию : Нет
Принудительно : Нет

Текст #4
Идентификатор : 13
Формат : UTF-8
Идентификатор кодека : S_TEXT/UTF8
Идентификатор кодека/Информация : UTF-8 Plain Text
Язык : Finnish
По умолчанию : Нет
Принудительно : Нет

Меню
00:00:00.000 : en:01. Main Titles / The Englishwoman
00:05:34.500 : en:02. The Palace
00:10:06.606 : en:03. Meeting The King
00:15:43.075 : en:04. The Royal Family
00:22:22.641 : en:05. The Royal School
00:32:05.456 : en:06. Slavery
00:40:48.612 : en:07. The King's Approval
00:46:27.117 : en:08. The Rice Festival
00:50:51.348 : en:09. Burmese Death Squads
00:53:21.031 : en:10. A Royal Party
01:07:31.614 : en:11. The Marketplace
01:10:56.919 : en:12. A Small Gift
01:16:08.964 : en:13. Fever
01:23:14.222 : en:14. A Letter
01:29:19.187 : en:15. An Attack
01:37:07.321 : en:16. Tuptim
01:49:44.110 : en:17. Kincaid's Information
01:53:17.774 : en:18. Nong Khai
02:13:49.588 : en:19. The White Elephant
02:21:05.790 : en:20. End Titles
pb.wtf



Скачать Анна и Король через торрент https://i1.imageban.ru/out/2019/09/24/380c311c4cfd87a735b44c4d7c85014a.jpg Скачать фильм Анна и Король через торрент бесплантно в хорошем качестве Описание: Школьная учительница из Англии Анна Леоноуэнс приехала учить детей короля Монгкута в экзотический Сиам. И неожиданно западная ... 10 10 1
Info! Золотая раздача, скачанное не засчитывается.
Торрент: Зарегистрирован [2019-09-24 17:53] · скачан: 13 раз
Статус: √ проверено
Размер: 15.89 GB
Как cкачать? Как скачать Анна и Король через торрент | qTorrent

28-11-2019 20:33  

Отключить всю рекламу на сайте

    Дорогой пользователь! Огромная просьба, поблагодарите релизера, оцените раздачу и оставьте свои комментарий, если Вы скачали Анна и Король через торрент бесплатно! Внесите свою лепту в развитие PiratBit!
    Комментировать посты могут только пользователи прошедшие не сложную регистрацию
    Показать сообщения:    

    Анна и Король через торрент
    Скачать бесплатно Анна и Король
    Анна и Король скачать торрент
    Анна и Король смотреть онлайн
    Cкачать фильм Анна и Король бесплатно
    Анна и Король скачать торрент в хорошем качестве
    Анна и Король смотреть онлайн бесплатно в хорошем качестве


    Вы не можете начинать темы
    Вы не можете отвечать на сообщения
    Вы не можете редактировать свои сообщения
    Вы не можете удалять свои сообщения
    Вы не можете голосовать в опросах
    Вы не можете прикреплять файлы к сообщениям
    Вы можете скачивать файлы