новый адрес пиратбит piratbit
Мега распродажа FORZA HORIZON 4 ULTIMATE+ВСЕ DLC+ОНЛАЙН всего за 499р. 349 руб. (супер цена). Внимание количество ограничено!!!

iTunes

1+1

iTunes

мы

iTunes

1

iTunes

Чернобыль

iTunes

Ральф против интернета

Лицензия

ПШазам

Лицензия

Игра престолов

Лицензия

30
pack

ВАЖНО

!!Акция!!

Alien_RageХит недели

RePack

Resident Evil 21

ИГРА 18+

pack

RePack

Metro:Exodus

!!Акция!!

Alien_Rage

RePack

fifa19

RePack

Assassins Creed: Odyssey

RePack

NEED FOR SPEED™ PAYBACK

3 сезон

9 сезон

Бесстыжие 9 сезон

Все сериалы

все сериалы на PB.wtf

RePack

FAR CRY 5
Ребята, катастрофически не хватает 1900р. для оплаты серверов за Октябрь (всвязи с блокировками трафик упал в 3 раза), 1-2р., выручайте.
  

Под подозрением / Bent (Роберт Мореско) [2018 г., триллер, криминал, HDRip, Профессиональный многоголосый "iTunes"] pb.wtf

Под подозрением через торрент pb.wtf

Раздают: 2 [ 0 KB/s ]
Размер: 697 MB | Добавлен: 1 мес. 19 д. назад | Торрент скачан:47 раз
Скачать  

24-09-2019 18:19 Под подозрением Скачать торрент  

Под подозрением / Bent
Год выпуска: 2018
Страна: Испания, США / AMBI Group, Deadly Codes Productions, Elipsis Capital
Жанр: триллер, криминал
Продолжительность: 01:36:31
Перевод: Профессиональный многоголосый (iTunes)

Режиссер: Роберт Мореско

rating

В ролях: Карл Урбан, София Вергара, Энди Гарсиа, Винсент Спано, Джон Финн, Грейс Байерс, Трэй Байерс, Тоня Корнелисс, Патрик Бреннан, Мэттью Рейнольдс

Описание: Бывший полицейский из отдела по наркоконтролю Дэнни Галлахэр, выйдя из тюрьмы, стремится отомстить лжесвидетелю и убийце своего напарника. Нити расследования выводят Дэнни на другое загадочное убийство и масштабный государственный заговор.

Качество: HDRip
Формат: AVI
Видео кодек: DivX
Аудио кодек: MP3
Видео: 640x272 (2.35:1), 23.976 fps, DivX Codec 4.x ~871 kbps avg, 0.21 bit/pixel
Аудио: 48 kHz, MPEG Layer 3, 2 ch, ~128.00 kbps avg
скриншот   скриншот   скриншот   скриншот  

Общее
Полное имя : F:\ФИЛЬМЫ\Под подозрением.2018.HDRip.avi
Формат : AVI
Формат/Информация : Audio Video Interleave
Размер файла : 697 Мбайт
Продолжительность : 1 ч. 36 м.
Общий поток : 1009 Кбит/сек
Программа кодирования : VirtualDubMod 1.5.10.3 | www.virtualdub-fr.org || (build 2550/release)
Библиотека кодирования : VirtualDubMod build 2550/release

Видео
Идентификатор : 0
Формат : MPEG-4 Visual
Профиль формата : Advanced Simple@L5
Настройки формата : BVOP3 / GMC3 / QPel
Параметр BVOP формата : 3
Параметр QPel формата : Да
Параметр GMC формата : 3 точки перехода
Параметр матрицы формата : Default (MPEG)
Идентификатор кодека : DIVX
Идентификатор кодека/Информация : Project Mayo
Идентификатор кодека/Подсказка : DivX 4
Продолжительность : 1 ч. 36 м.
Битрейт : 872 Кбит/сек
Ширина : 640 пикселей
Высота : 272 пикселя
Соотношение сторон : 2,35:1
Частота кадров : 23,976 (24000/1001) кадра/сек
Цветовое пространство : YUV
Субдискретизация насыщенности : 4:2:0
Битовая глубина : 8 бит
Тип развёртки : Прогрессивная
Метод сжатия : С потерями
Бит/(Пиксели*Кадры) : 0.209
Размер потока : 602 Мбайт (86%)
Библиотека кодирования : XviD 1.2.1 (UTC 2008-12-04)

Аудио
Идентификатор : 1
Формат : MPEG Audio
Версия формата : Version 1
Профиль формата : Layer 3
Настройки формата : Joint stereo
Идентификатор кодека : 55
Идентификатор кодека/Подсказка : MP3
Продолжительность : 1 ч. 36 м.
Вид битрейта : Постоянный
Битрейт : 128 Кбит/сек
Каналы : 2 канала
Частота : 48,0 КГц
Частота кадров : 41,667 кадра/сек (1152 SPF)
Метод сжатия : С потерями
Размер потока : 88,4 Мбайт (13%)
Выравнивание : Соединение по промежуткам
Продолжительность промежутка : 42 мс. (1,00 видеокадр)
Время предзагрузки промежутка : 504 мс.
Библиотека кодирования : LAME3.99r
Настройки программы : -m j -V 4 -q 2 -lowpass 17 -b 128

pb.wtf



Скачать Под подозрением через торрент http://pic1.kartinco.top/images/12/vkacy.jpg Скачать фильм Под подозрением через торрент бесплантно в хорошем качестве Описание: Бывший полицейский из отдела по наркоконтролю Дэнни Галлахэр, выйдя из тюрьмы, стремится отомстить лжесвидетелю и убийце своего ... 10 10 3
Торрент: Зарегистрирован [2019-09-24 18:19] · скачан: 47 раз
Статус: √ проверено
Размер: 697 MB
Как cкачать? Как скачать Под подозрением через торрент | qTorrent

% Раздел Тема Автор DL S | L
Фильмы 2018 [DVDrip, WEB-DLRip, HDrip] (DUB, MVO) [ 1.77 GB ] Под подозрением / Склонность / Bent [2018 BDRip-AVC] MVO bober100 Скачать
6 | 0
Фильмы (Blu-ray, BD-Remux, HDDVD) [ 22.54 GB ] Под подозрением / Склонность / Bent [2018 BD Remux 1080p] MVO bober100 Скачать
2 | 0
Фильмы 2018 [DVDrip, WEB-DLRip, HDrip] (DUB, MVO) [ 1.46 GB ] Под подозрением / Склонность / Bent [2018 BDRip] MVO bober100 Скачать
15 | 0
Фильмы [HD 720p, 1080p] (Хороший звук DUB, MVO) [ 7.17 GB ] Под подозрением / Склонность / Bent [2018 BDRip 1080p] MVO bober100 Скачать
3 | 0


>> Регистрируемся здесь <<






Отзывы и комментарии о схеме читаем и пишем здесь: ---> Отзывы и комментарии о схеме

Новые благодарочки в телеграм довольных пользователей:
скриншот   скриншот   скриншот   скриншот   скриншот
    Дорогой пользователь! Огромная просьба, поблагодарите релизера, оцените раздачу и оставьте свои комментарий, если Вы скачали Под подозрением через торрент бесплатно! Внесите свою лепту в развитие PiratBit!
    Комментировать посты могут только пользователи прошедшие не сложную регистрацию
    Показать сообщения:    

    Под подозрением через торрент
    Скачать бесплатно Под подозрением
    Под подозрением скачать торрент
    Под подозрением смотреть онлайн
    Cкачать фильм Под подозрением бесплатно
    Под подозрением скачать торрент в хорошем качестве
    Под подозрением смотреть онлайн бесплатно в хорошем качестве


    Вы не можете начинать темы
    Вы не можете отвечать на сообщения
    Вы не можете редактировать свои сообщения
    Вы не можете удалять свои сообщения
    Вы не можете голосовать в опросах
    Вы не можете прикреплять файлы к сообщениям
    Вы можете скачивать файлы