Ссылка на приватное зеркало всего за 1$. Внимание количество ограничено!!!

iTunes

iTunes

iTunes

1

iTunes

iTunes

iTunes

iTunes

iTunes

30
pack

$ от Little Big

ВАЖНО

!!Акция!!

Alien_RageХит недели

RePack

Resident Evil 21

ИГРА 18+

pack

RePack

jed

!!Акция!!

Alien_Rage

RePack

fifa19

RePack

Assassins Creed: Odyssey

RePack

NEED FOR SPEED™ PAYBACK

4 сезон

9 сезон

Бесстыжие 9 сезон

Все сериалы

все сериалы на PB.wtf

RePack

FAR CRY 5
  

Последнее испытание (Алексей А. Петрухин) [2019, Боевик, WEB-DLRip] [iTunes] pb.wtf

Последнее испытание через торрент pb.wtf

Раздают: 1 [ 0 KB/s ]
Размер: 1.45 GB | Добавлен: 8 мес. назад | Торрент скачан:350 раз
Скачать  

25-09-2019 16:06 Последнее испытание Скачать торрент  

Последнее испытание
Год выпуска: 2019
Страна: Россия
Жанр: Боевик
Продолжительность: 02:18:03
Перевод: Не требуется | iTunes
Субтитры: отсутствуют

Режиссер: Алексей А. Петрухин



В ролях: Ирина Купченко, Ирина Алферова, Андрей Мерзликин, Анна Чурина, Елена Захарова, Иван Кокорин, Беслан Терекбаев, Алиса Гребенщикова, Михаил Евланов, Игорь Жижикин

Описание: На сцене, где должна была пройти премьера мюзикла, разыгралась драма... Люди шли на праздник - веселый, яркий, а оказались лицом к лицу со смертью. Они, ставшие заложниками, сумевшие пройти страшное испытание, сохранив человеческое достоинство и мужество - обычные люди, ставшие героями...

Качество: WEB-DLRip
Формат: AVI

Видео: Xvid 73, 720x304, ~1304 kbps, 24,000 fps
Аудио: русский, AC3, 2.0 ch, 48 kHz, 192 kbps | iTunes
скриншот  скриншот  скриншот  скриншот  

Общее
Полное имя : G:Torrent2PosledneeIspytanieWEBDLRip.avi
Формат : AVI
Формат/Информация : Audio Video Interleave
Профиль формата : OpenDML
Размер файла : 1,45 Гбайт
Продолжительность : 2 ч. 18 м.
Общий поток : 1508 Кбит/сек
Программа кодирования : XviD4PSP 6.0 / 53.6.0

Видео
Идентификатор : 0
Формат : MPEG-4 Visual
Профиль формата : Advanced Simple@L5
Настройки формата : BVOP1 / Custom Matrix
Параметр BVOP формата : 1
Параметр QPel формата : Нет
Параметр GMC формата : Без точки перехода
Параметр матрицы формата : Выборочная
Идентификатор кодека : XVID
Идентификатор кодека/Подсказка : XviD
Продолжительность : 2 ч. 18 м.
Битрейт : 1304 Кбит/сек
Ширина : 720 пикселей
Высота : 304 пикселя
Соотношение сторон : 2,35:1
Частота кадров : 24,000 кадра/сек
Цветовое пространство : YUV
Субдискретизация насыщенности : 4:2:0
Битовая глубина : 8 бит
Тип развёртки : Прогрессивная
Метод сжатия : С потерями
Бит/(Пиксели*Кадры) : 0.248
Размер потока : 1,26 Гбайт (86%)
Библиотека кодирования : XviD 73

Аудио
Идентификатор : 1
Формат : AC-3
Формат/Информация : Audio Coding 3
Параметр Endianness формата : Big
Идентификатор кодека : 2000
Продолжительность : 2 ч. 18 м.
Вид битрейта : Постоянный
Битрейт : 192 Кбит/сек
Каналы : 2 канала
Расположение каналов : Front: L R
Частота : 48,0 КГц
Частота кадров : 31,250 кадров/сек (1536 SPF)
Битовая глубина : 16 бит
Метод сжатия : С потерями
Размер потока : 190 Мбайт (13%)
Выравнивание : Соединение по промежуткам
Продолжительность промежутка : 32 мс. (0,77 видеокадр)
pb.wtf



Скачать Последнее испытание через торрент http://lostpix.com/thumbs/2019-09/30/w8idhak20dn9wqrqgh9jz6g3j.png Скачать фильм Последнее испытание через торрент бесплантно в хорошем качестве Описание: На сцене, где должна была пройти премьера мюзикла, разыгралась драма... Люди шли на праздник - веселый, яркий, а оказались лицом ... 10 10 13
Торрент: Зарегистрирован [2019-10-02 16:31] · скачан: 350 раз
Статус: √ проверено
Размер: 1.45 GB
Как cкачать? Как скачать Последнее испытание через торрент | qTorrent

% Раздел Тема Автор DL S | L
Наши новые фильмы 2018-2019 [ 2.18 GB ] Последнее испытание [2019 WEB-DLRip] bober100 Скачать
4 | 0
Наши фильмы (HD, WEB-DL 720p, 1080p) [ 4.77 GB ] Последнее испытание [2019 WEB-DL 1080p] bober100 Скачать
1 | 0
Наши новые фильмы 2018-2019 [ 2.04 GB ] Последнее испытание [2019 WEB-DLRip-AVC] bober100 Скачать
3 | 0
Азиатские фильмы [ 1.45 GB ] Последнее испытание Шаолиня / Shao Lin mu ren / Shaolin Wooden Men [1976 Боевые искусства HDRip ] lexxus350 Скачать
1 | 0

28-11-2019 20:33  

Отключить всю рекламу на сайте

    Дорогой пользователь! Огромная просьба, поблагодарите релизера, оцените раздачу и оставьте свои комментарий, если Вы скачали Последнее испытание через торрент бесплатно! Внесите свою лепту в развитие PiratBit!
    Комментировать посты могут только пользователи прошедшие не сложную регистрацию
    Показать сообщения:    

    Последнее испытание через торрент
    Скачать бесплатно Последнее испытание
    Последнее испытание скачать торрент
    Последнее испытание смотреть онлайн
    Cкачать фильм Последнее испытание бесплатно
    Последнее испытание скачать торрент в хорошем качестве
    Последнее испытание смотреть онлайн бесплатно в хорошем качестве


    Вы не можете начинать темы
    Вы не можете отвечать на сообщения
    Вы не можете редактировать свои сообщения
    Вы не можете удалять свои сообщения
    Вы не можете голосовать в опросах
    Вы не можете прикреплять файлы к сообщениям
    Вы можете скачивать файлы