Ссылка на приватное зеркало нашего сайта всего за 1$. Внимание количество ограничено!!!

2 сезон

iTunes

1 сезон

1

2 сезон

2 сезон

iTunes

1 сезон

RePack

30

Ultimate

ВАЖНО

ИГРА 18+

pack

RePack

MK11
pack

Забери бонус

RePack

jed

!!Акция!!

Alien_Rage

RePack

fifa19

RePack

Assassins Creed: Odyssey

RePack

NEED FOR SPEED™ PAYBACK

4 сезон

9 сезон

Бесстыжие 9 сезон

Все сериалы

все сериалы на PB.wtf

RePack

FAR CRY 5
  

Пустая пуля / Безбашенная пуля / Hollow Point (Дэниэл Дзирилли) [2019, Боевик, WEB-DL 1080p] DUB [iTunes] pb.wtf

Пустая пуля через торрент pb.wtf

Раздают: 1 [ 0 KB/s ]
Размер: 3.33 GB | Добавлен: 1 год 2 мес. назад | Торрент скачан:189 раз
Скачать  

25-09-2019 16:42 Пустая пуля Скачать торрент  

Пустая пуля / Безбашенная пуля / Hollow Point
Год выпуска: 2019
Страна: США
Жанр: Боевик
Продолжительность: 01:25:55
Перевод: Дублированный | iTunes
Субтитры: отсутствуют

Режиссер: Дэниэл Дзирилли

rating

В ролях: Люк Госс, Дилан Джей, Жужу Чан, Джей Мор, Билл Дьюк, Майкл Паре, Роджер Гуэнвёр Смит, Наталия Гуслистая, Гари Кейрнс II, Энтони Халл

Описание: Когда жену и дочь Нолана бессмысленно убивают, скорбящий мужчина оказывается втянутым в войну между борцами за справедливость и преступниками, наводнившими их город.

Качество: WEB-DL 1080p
Формат: MKV

Видео: MPEG-4 AVC, 1920x1010 (1,901:1), 25 fps, MPEG-4 AVC ~ 5047 Kbps avg, 0.104 bit/pixel
Аудио: AC3, 48 kHz, 6 ch, ~384.00 kbps avg | русский | iTunes
скриншот  скриншот  скриншот  скриншот  

скриншот  скриншот  скриншот  скриншот  

Общее
Уникальный идентификатор : 243473366366087095940103555756766520712 (0xB72B43C30527A656A4FA91E8A813E588)
Полное имя : D:TorrentsЗавершенныеHollow.Point.2019.WEB-DL.1080p.ELEKTRI4KA.UNIONGANG.mkv
Формат : Matroska
Версия формата : Version 2
Размер файла : 3,33 Гбайт
Продолжительность : 1 ч. 25 м.
Общий поток : 5541 Кбит/сек
Название фильма : Hollow.Point .2019.ELEKTRI4KA.UNIONGANG
Дата кодирования : UTC 2019-09-29 18:22:28
Программа кодирования : mkvmerge v7.8.0 ('River Man') 32bit built on Apr 3 2015 12:11:22
Библиотека кодирования : libebml v1.3.1 + libmatroska v1.4.2

Видео
Идентификатор : 2
Формат : AVC
Формат/Информация : Advanced Video Codec
Профиль формата : High@L4
Настройки формата : CABAC / 4 Ref Frames
Параметр CABAC формата : Да
Параметр RefFrames формата : 4 кадра
Идентификатор кодека : V_MPEG4/ISO/AVC
Продолжительность : 1 ч. 25 м.
Битрейт : 5047 Кбит/сек
Ширина : 1920 пикселей
Высота : 1010 пикселей
Соотношение сторон : 1,901
Режим частоты кадров : Постоянный
Частота кадров : 25,000 кадров/сек
Цветовое пространство : YUV
Субдискретизация насыщенности : 4:2:0
Битовая глубина : 8 бит
Тип развёртки : Прогрессивная
Бит/(Пиксели*Кадры) : 0.104
Размер потока : 3,03 Гбайт (91%)
Язык : English
Default : Да
Forced : Нет
Цветовой диапазон : Limited
Основные цвета : BT.709
Характеристики трансфера : BT.709
Коэффициенты матрицы : BT.709

Аудио
Идентификатор : 1
Формат : AC-3
Формат/Информация : Audio Coding 3
Идентификатор кодека : A_AC3
Продолжительность : 1 ч. 25 м.
Вид битрейта : Постоянный
Битрейт : 384 Кбит/сек
Каналы : 6 каналов
Расположение каналов : Front: L C R, Side: L R, LFE
Частота : 48,0 КГц
Частота кадров : 31,250 кадров/сек (1536 SPF)
Битовая глубина : 16 бит
Метод сжатия : С потерями
Размер потока : 236 Мбайт (7%)
Язык : Russian
Default : Да
Forced : Нет

Меню
00:00:00.000 : en:Глава 1
00:08:25.800 : en:Глава 2
00:16:33.360 : en:Глава 3
00:25:04.119 : en:Глава 4
00:33:53.718 : en:Глава 5
00:43:10.078 : en:Глава 6
00:51:18.117 : en:Глава 7
00:59:20.477 : en:Глава 8
01:08:18.597 : en:Глава 9
01:16:48.956 : en:Глава 10

pb.wtf



Скачать Пустая пуля через торрент https://b.radikal.ru/b21/1909/f7/85c8518eb880.jpg Скачать фильм Пустая пуля через торрент бесплантно в хорошем качестве Описание: Когда жену и дочь Нолана бессмысленно убивают, скорбящий мужчина оказывается втянутым в войну между борцами за справедливость и ... 10 10 11
Торрент: Зарегистрирован [2019-09-30 00:59] · скачан: 189 раз
Статус: √ проверено
Размер: 3.33 GB
Как cкачать? Как скачать Пустая пуля через торрент | qTorrent

% Раздел Тема Автор DL S | L
Фильмы (WEB-DL 720p, 1080p) [ 2.66 GB ] Пустая пуля / Безбашенная пуля / Hollow Point [2019 WEB-DL 720p] bober100 Скачать
1 | 0
T Фильмы (мультфильмы) cо спонсором показа (Новинки AVI/MKV) [ 3.43 GB ] Пустая пуля / Безбашенная пуля / Hollow Point [2019 WEB-DL 720p] DUB [Line] bober100 Скачать
1 | 0
Фильмы 2019-2020 [DVDrip, WEB-DLRip, HDrip] (DUB, MVO) [ 1.37 GB ] Пустая пуля / Безбашенная пуля / Hollow Point [2019 WEB-DLRip] bober100 Скачать
1 | 0

28-11-2019 20:33  

Отключить всю рекламу на сайте

    Дорогой пользователь! Огромная просьба, поблагодарите релизера, оцените раздачу и оставьте свои комментарий, если Вы скачали Пустая пуля через торрент бесплатно! Внесите свою лепту в развитие PiratBit!
    Комментировать посты могут только пользователи прошедшие не сложную регистрацию
    Показать сообщения:    

    Пустая пуля через торрент
    Скачать бесплатно Пустая пуля
    Пустая пуля скачать торрент
    Пустая пуля смотреть онлайн
    Cкачать фильм Пустая пуля бесплатно
    Пустая пуля скачать торрент в хорошем качестве
    Пустая пуля смотреть онлайн бесплатно в хорошем качестве


    Вы не можете начинать темы
    Вы не можете отвечать на сообщения
    Вы не можете редактировать свои сообщения
    Вы не можете удалять свои сообщения
    Вы не можете голосовать в опросах
    Вы не можете прикреплять файлы к сообщениям
    Вы можете скачивать файлы