Ссылка на приватное зеркало нашего сайта всего за 1$. Внимание количество ограничено!!!

2 сезон

iTunes

1 сезон

1

2 сезон

2 сезон

iTunes

1 сезон

RePack

30

Новинка

ВАЖНО

ИГРА 18+

pack

RePack

MK11
pack

Забери бонус

RePack

jed

!!Акция!!

Alien_Rage

RePack

fifa19

RePack

Assassins Creed: Odyssey

RePack

NEED FOR SPEED™ PAYBACK

4 сезон

9 сезон

Бесстыжие 9 сезон

Все сериалы

все сериалы на PB.wtf

RePack

FAR CRY 5
  

Зеровилль / Zeroville (Джеймс Франко) [2019, драма, комедия, WEB-DL 1080p] [Локализованная версия] DUB [iTunes] pb.wtf

Зеровилль через торрент pb.wtf

Раздают: 1 [ 0 KB/s ]
Размер: 3.2 GB | Добавлен: 1 год 1 мес. назад | Торрент скачан:290 раз
Скачать  

26-09-2019 04:19 Зеровилль Скачать торрент  

Зеровилль / Zeroville
Год выпуска: 2019
Страна: США
Студия: Patriot Pictures, RabbitBandini Productions
Жанр: драма, комедия
Продолжительность: 01:32:25
Перевод: Дублированный | iTunes
Субтитры: Русские (форсированные (хардсаб)

Режиссер: Джеймс Франко

rating

В ролях: Джеймс Франко, Сет Роген, Джеки Уивер, Меган Фокс, Джои Кинг, Уилл Феррелл, Дэнни Макбрайд, Дэйв Франко, Крэйг Робинсон, Томас Иэн Николас

Описание: Однажды в Голливуд отправляется одержимый кино студент-архитектор с эффектной татуировкой на бритой голове, и попадает в мир кино, секса, наркотиков, рок-н-ролла, упадка больших киностудий и подъема независимых режиссеров. Никто не ожидал, что его погружение в мир кинематографа в итоге закончится фиаско...

Качество: WEB-DL 1080p | Локализованная версия
Формат: MKV

Видео: MPEG-4 AVC, 1920x798, 4567 Кbit/s, 25 fps
Аудио: 48 kHz, AC3, 5.1, 384 Kbps | iTunes | RUS |
скриншот  скриншот  скриншот  скриншот  скриншот  

General
Unique ID : 194335833955846734675105796014503053374 (0x9233B85E42B8C7014C4045E09887483E)
Complete name : D:Video111Zeroville.2019.WEB-DL.1080p.seleZen.mkv
Format : Matroska
Format version : Version 4
File size : 3.20 GiB
Duration : 1 h 32 min
Overall bit rate : 4 953 kb/s
Movie name : Zeroville 2019 From селезень
Encoded date : UTC 2019-10-24 18:59:22
Writing application : mkvmerge v22.0.0 ('At The End Of The World') 64-bit
Writing library : libebml v1.3.5 + libmatroska v1.4.8

Video
ID : 1
Format : AVC
Format/Info : Advanced Video Codec
Format profile : High@L4
Format settings : CABAC / 5 Ref Frames
Format settings, CABAC : Yes
Format settings, Reference : 5 frames
Codec ID : V_MPEG4/ISO/AVC
Duration : 1 h 32 min
Bit rate : 4 567 kb/s
Width : 1 920 pixels
Height : 798 pixels
Display aspect ratio : 2.40:1
Frame rate mode : Constant
Frame rate : 25.000 FPS
Color space : YUV
Chroma subsampling : 4:2:0
Bit depth : 8 bits
Scan type : Progressive
Bits/(Pixel*Frame) : 0.119
Stream size : 2.95 GiB (92%)
Language : English
Default : Yes
Forced : No
Color range : Limited
Color primaries : BT.709
Transfer characteristics : BT.709
Matrix coefficients : BT.709

Audio
ID : 2
Format : AC-3
Format/Info : Audio Coding 3
Commercial name : Dolby Digital
Codec ID : A_AC3
Duration : 1 h 32 min
Bit rate mode : Constant
Bit rate : 384 kb/s
Channel(s) : 6 channels
Channel layout : L R C LFE Ls Rs
Sampling rate : 48.0 kHz
Frame rate : 31.250 FPS (1536 SPF)
Bit depth : 16 bits
Compression mode : Lossy
Stream size : 254 MiB (8%)
Title : iTunes
Language : Russian
Service kind : Complete Main
Default : Yes
Forced : Yes

Menu
00:00:00.000 : ru:Глава 1
00:04:29.040 : ru:Глава 2
00:10:54.880 : ru:Глава 3
00:16:40.920 : ru:Глава 4
00:20:19.560 : ru:Глава 5
00:26:48.040 : ru:Глава 6
00:31:57.200 : ru:Глава 7
00:41:45.200 : ru:Глава 8
00:46:38.040 : ru:Глава 9
00:54:29.600 : ru:Глава 10
00:59:17.280 : ru:Глава 11
01:05:03.400 : ru:Глава 12
01:11:42.480 : ru:Глава 13
01:18:41.240 : ru:Глава 14
01:24:38.440 : ru:Глава 15

pb.wtf



Скачать Зеровилль через торрент https://img15.lostpic.net/2019/10/24/fc86634f757032029861f640bfff6ff6.jpg Скачать фильм Зеровилль через торрент бесплантно в хорошем качестве Описание: Однажды в Голливуд отправляется одержимый кино студент-архитектор с эффектной татуировкой на бритой голове, и попадает в мир ... 9.9 10 11
Торрент: Зарегистрирован [2019-10-24 19:33] · скачан: 290 раз
Статус: √ проверено
Размер: 3.2 GB
Как cкачать? Как скачать Зеровилль через торрент | qTorrent

% Раздел Тема Автор DL S | L
Фильмы 2019-2020 [DVDrip, WEB-DLRip, HDrip] (DUB, MVO) [ 744 MB ] Зеровилль / Zeroville [2019 WEB-DLRip] [Локализованная версия] bober100 Скачать
1 | 0
Фильмы 2019-2020 [DVDrip, WEB-DLRip, HDrip] (DUB, MVO) [ 1.46 GB ] Зеровилль / Zeroville [2019 WEB-DLRip] [Локализованная версия] bober100 Скачать
2 | 0

28-11-2019 20:33  

Отключить всю рекламу на сайте

    Дорогой пользователь! Огромная просьба, поблагодарите релизера, оцените раздачу и оставьте свои комментарий, если Вы скачали Зеровилль через торрент бесплатно! Внесите свою лепту в развитие PiratBit!
    Комментировать посты могут только пользователи прошедшие не сложную регистрацию
    Показать сообщения:    

    Зеровилль через торрент
    Скачать бесплатно Зеровилль
    Зеровилль скачать торрент
    Зеровилль смотреть онлайн
    Cкачать фильм Зеровилль бесплатно
    Зеровилль скачать торрент в хорошем качестве
    Зеровилль смотреть онлайн бесплатно в хорошем качестве


    Вы не можете начинать темы
    Вы не можете отвечать на сообщения
    Вы не можете редактировать свои сообщения
    Вы не можете удалять свои сообщения
    Вы не можете голосовать в опросах
    Вы не можете прикреплять файлы к сообщениям
    Вы можете скачивать файлы