новый адрес пиратбит piratbit
Мега распродажа FORZA HORIZON 4 ULTIMATE+ВСЕ DLC+ОНЛАЙН всего за 499р. 349 руб. (супер цена). Внимание количество ограничено!!!

iTunes

1+1

iTunes

мы

iTunes

1

iTunes

Чернобыль

iTunes

Ральф против интернета

Лицензия

ПШазам

Лицензия

Игра престолов

Лицензия

30
pack

ВАЖНО

!!Акция!!

Alien_RageХит недели

RePack

Resident Evil 21

ИГРА 18+

pack

RePack

Metro:Exodus

!!Акция!!

Alien_Rage

RePack

fifa19

RePack

Assassins Creed: Odyssey

RePack

NEED FOR SPEED™ PAYBACK

3 сезон

9 сезон

Бесстыжие 9 сезон

Все сериалы

все сериалы на PB.wtf

RePack

FAR CRY 5
Ребята, катастрофически не хватает 1900р. для оплаты серверов за Октябрь (всвязи с блокировками трафик упал в 3 раза), 1-2р., выручайте.
  

Пенниуорт / Pennyworth / Сезон: 1 / Серии: 1-10 из 10 (Роб Бэйли, Билл Иглз, Дэнни Кэннон) [2019, боевик, драма, криминал, WEB-DL 720p] DUB [Lucky Production] +MVO [Lostfilm] pb.wtf

Пенниуорт через торрент pb.wtf

Размер: 17.45 GB | Добавлен: 1 мес. 11 д. назад | Торрент скачан:16 раз
Скачать  

26-09-2019 05:44 Пенниуорт Скачать торрент  

Пенниуорт / Pennyworth Год выпуска: 2019
Страна: США, Epix, Warner Horizon Production, Primrose Hill Productions
Жанр: боевик, драма, криминал
Продолжительность: ~ 01:11:00

Перевод 1: Дублированный | Lucky Production по заказу Кинопоиск
Перевод 2: Профессиональный (многоголосый закадровый) | Lostfilm

Субтитры: Русские (Full), английские (Full)

Режиссёр: Роб Бэйли, Билл Иглз, Дэнни Кэннон

В ролях: Джек Бэннон, Палома Фэйт, Бен Элдридж, Джейсон Флеминг, Хэйнсли Ллойд Беннетт, Дороти Эткинсон, Эмма Коррин, Райан Флетчер, Иан Палстон-Дэвис, Ники Виккери

Описание: После демобилизации из армии Альфред Пенниуорт (Джек Бэннон) пытается устроиться среди гражданских, и, что часто случается с военными, начинает как вышибала в ночном клубе. Эта приземленная работа вызывает большое неудовольствие его отца, профессионального дворецкого. Продолжая мечтать о чем-то большем, Альфред встречает Томаса Уэйна (Бен Элдридж) - прямолинейного финансового аналитика, расследующего экономические преступления и заговоры. Пенниуорт освобождает сестру нового знакомого от подозрительных личностей, чем демонстрирует, что бывших солдат не бывает, как бы ему ни хотелось забыть о своем военном прошлом. Тем более что еще не время терять хватку: безопасности королевства угрожают тайные организации, которые собираются изменить будущее британского государства и всего мира.



Качество: WEB-DL 720p
Контейнер: MKV

Видео: AVC, 1280x720 (16:9), ~ 2680 Kbps, 23.976 fps
Аудио 1: AC3, 48 kHz, 2 ch, 192 kbps - Rus (Lucky Production) 1-2, 9 серии
Аудио 2: AC3, 48 kHz, 6 ch, 384 kbps - Rus (Lucky Production) 3-8 серии
Аудио 3: AC3, 48 kHz, 6 ch, 640 kbps - Rus (Lostfilm)
Аудио 4: AC3, 48 kHz, 6 ch, 640 kbps - Eng


Реклама: Отсутствует

Спасибо:
Внимание! Раздача ведётся путём добавления новых серий; при каждом добавлении создаётся новый торрент.
Чтобы начать докачку новой серии, пользователям необходимо сделать следующее:
1. Остановить скачивание.
2. Удалить старый торрент у себя из клиента (старые серии удалять не надо).
3. Скачать новый торрент и запустить его у себя в клиенте вместо старого, при этом указать клиенту путь в старую папку куда и должно происходить скачивание новых серий.
Ваш клиент при этом должен произвести хеширование (проверку) старой папки (если не производит сам - помогите ему сделать это), и будет докачивать только те серии которых у вас ещё нет. Старые серии при этом не удаляются, а продолжают раздаваться!
Eсли вы уже удалили старые серии, то предотвратить повторную закачку старых серий можно, отжав галочку в соответствующих местах при запуске нового торрента.
1-01. Пилот / Pilot (28.07.2019)
1-02. Дочка хозяина / The Landlord's Daughter (04.08.2019)
1-03. Марта Кейн / Martha Kane (11.09.2019)
1-04. Леди Пенелопа / Lady Penelope (18.08.2019)
1-05. Ширли Бэсси / Shirley Bassey (25.08.2019)
1-06. Сцилла Блэк / Cilla Black (01.09.2019)
1-07. Джули Кристи / Julie Christie (08.09.2019)
1-08. Сэнди Шоу / Sandie Shaw (15.09.2019)
1-09. Альма Коган / Alma Coogan (22.09.2019)

Анонс:
1-10. Марианна Фейтфулл / Marianne Faithful (29.09.2019)
Общее
Уникальный идентификатор                 : 240741961940574598627810080388200536496 (0xB51D372056862BECB4827DCA53E019B0)
Полное имя                               : Пенниуорт. Сериал. 2019. DUB-MVO. EniaHD (WEB-DL 720p)\Pennyworth.s01e01. Пилот.mkv
Формат                                   : Matroska
Версия формата                           : Version 2
Размер файла                             : 2,12 Гбайт
Продолжительность                        : 1 ч. 11 м.
Общий поток                              : 4238 Кбит/сек
Название фильма                          : Pilot
Дата кодирования                         : UTC 2019-07-30 09:48:11
Программа кодирования                    : mkvmerge v6.9.1 ('Blue Panther') 32bit built on Apr 18 2014 18:15:44
Библиотека кодирования                   : libebml v1.3.0 + libmatroska v1.4.1

Видео
Идентификатор                            : 1
Формат                                   : AVC
Формат/Информация                        : Advanced Video Codec
Профиль формата                          : High@L3.1
Настройки формата                        : CABAC / 4 Ref Frames
Параметр CABAC формата                   : Да
Параметр RefFrames формата               : 4 кадра
Идентификатор кодека                     : V_MPEG4/ISO/AVC
Продолжительность                        : 1 ч. 11 м.
Вид битрейта                             : Постоянный
Битрейт                                  : 2682 Кбит/сек
Номинальный битрейт                      : 6000 Кбит/сек
Ширина                                   : 1280 пикселей
Высота                                   : 720 пикселей
Соотношение сторон                       : 16:9
Режим частоты кадров                     : Постоянный
Частота кадров                           : 23,976 (24000/1001) кадра/сек
Цветовое пространство                    : YUV
Субдискретизация насыщенности            : 4:2:0
Битовая глубина                          : 8 бит
Тип развёртки                            : Прогрессивная
Бит/(Пиксели*Кадры)                      : 0.121
Размер потока                            : 1,34 Гбайт (63%)
Язык                                     : English
Default                                  : Да
Forced                                   : Нет
Цветовой диапазон                        : Limited
Основные цвета                           : BT.709
Характеристики трансфера                 : BT.709
Коэффициенты матрицы                     : BT.709

Аудио #1
Идентификатор                            : 2
Формат                                   : AC-3
Формат/Информация                        : Audio Coding 3
Коммерческое название                    : Dolby Digital
Идентификатор кодека                     : A_AC3
Продолжительность                        : 1 ч. 11 м.
Вид битрейта                             : Постоянный
Битрейт                                  : 192 Кбит/сек
Каналы                                   : 2 канала
Channel layout                           : L R
Частота                                  : 48,0 КГц
Частота кадров                           : 31,250 кадров/сек (1536 SPF)
Битовая глубина                          : 16 бит
Метод сжатия                             : С потерями
Размер потока                            : 98,5 Мбайт (5%)
Заголовок                                : Dub
Язык                                     : Russian
ServiceKind/String                       : Complete Main
Default                                  : Да
Forced                                   : Нет

Аудио #2
Идентификатор                            : 3
Формат                                   : AC-3
Формат/Информация                        : Audio Coding 3
Коммерческое название                    : Dolby Digital
Идентификатор кодека                     : A_AC3
Продолжительность                        : 1 ч. 11 м.
Вид битрейта                             : Постоянный
Битрейт                                  : 640 Кбит/сек
Каналы                                   : 6 каналов
Channel layout                           : L R C LFE Ls Rs
Частота                                  : 48,0 КГц
Частота кадров                           : 31,250 кадров/сек (1536 SPF)
Битовая глубина                          : 16 бит
Метод сжатия                             : С потерями
Размер потока                            : 328 Мбайт (15%)
Заголовок                                : Lostfilm
Язык                                     : Russian
ServiceKind/String                       : Complete Main
Default                                  : Нет
Forced                                   : Нет

Аудио #3
Идентификатор                            : 4
Формат                                   : AC-3
Формат/Информация                        : Audio Coding 3
Коммерческое название                    : Dolby Digital
Идентификатор кодека                     : A_AC3
Продолжительность                        : 1 ч. 11 м.
Вид битрейта                             : Постоянный
Битрейт                                  : 640 Кбит/сек
Каналы                                   : 6 каналов
Channel layout                           : L R C LFE Ls Rs
Частота                                  : 48,0 КГц
Частота кадров                           : 31,250 кадров/сек (1536 SPF)
Битовая глубина                          : 16 бит
Метод сжатия                             : С потерями
Размер потока                            : 328 Мбайт (15%)
Язык                                     : English
ServiceKind/String                       : Complete Main
Default                                  : Нет
Forced                                   : Нет

Текст #1
Идентификатор                            : 5
Формат                                   : UTF-8
Идентификатор кодека                     : S_TEXT/UTF8
Идентификатор кодека/Информация          : UTF-8 Plain Text
Заголовок                                : Forced
Язык                                     : Russian
Default                                  : Да
Forced                                   : Да

Текст #2
Идентификатор                            : 6
Формат                                   : UTF-8
Идентификатор кодека                     : S_TEXT/UTF8
Идентификатор кодека/Информация          : UTF-8 Plain Text
Язык                                     : Russian
Default                                  : Нет
Forced                                   : Нет

Текст #3
Идентификатор                            : 7
Формат                                   : UTF-8
Идентификатор кодека                     : S_TEXT/UTF8
Идентификатор кодека/Информация          : UTF-8 Plain Text
Заголовок                                : SDH
Язык                                     : English
Default                                  : Нет
Forced                                   : Нет
pb.wtf



Скачать Пенниуорт через торрент https://funkyimg.com/i/2VPoc.png Скачать фильм Пенниуорт через торрент бесплантно в хорошем качестве Описание: После демобилизации из армии Альфред Пенниуорт (Джек Бэннон) пытается устроиться среди гражданских, и, что часто случается с ... 10 10 2
Info! Золотая раздача, скачанное не засчитывается.
Торрент: Зарегистрирован [2019-10-02 17:35] · скачан: 16 раз
Статус: √ проверено
Размер: 17.45 GB
Как cкачать? Как скачать Пенниуорт через торрент | qTorrent

% Раздел Тема Автор DL S | L
Зарубежные сериалы [ 31.19 GB ] Пенниуорт / Pennyworth / Сезон: 1 / Серии: 1-10 из 10 [2019 WEB-DL 1080p] MVO [Lostfilm] bober100 Скачать
2 | 0
Зарубежные сериалы [ 31.19 GB ] Пенниуорт / Pennyworth / Сезон: 1 / Серии: 1-10 из 10 [2019 WEB-DL 1080p] [MVO] killermax2013 Скачать
1 | 0
Зарубежные сериалы [ 6.04 GB ] Пенниуорт / Pennyworth / Сезон: 1 / Серии: 1-10 из 10 [2019 WEBRip-AVC] [DVO] killermax2013 Скачать
3 | 0
Зарубежные сериалы [ 15.25 GB ] Пенниуорт / Pennyworth / Сезон: 1 / Серии: 1-10 из 10 [2019 WEB-DL 720p] [MVO] killermax2013 Скачать
3 | 0
Зарубежные сериалы [ 30.18 GB ] Пенниуорт / Pennyworth / Сезон: 1 / Серии: 1-10 из 10 [2019 WEB-DL 1080p] [MVO] killermax2013 Скачать
1 | 0
Зарубежные сериалы [ 7.85 GB ] Пенниуорт / Pennyworth / Сезон: 1 / Серии: 1-10 из 10 [2019 WEB-DLRip] killermax2013 Скачать
6 | 0
Зарубежные сериалы [ 29.88 GB ] Пенниуорт / Pennyworth / Сезон: 1 / Серии: 1-10 из 10 [2019 WEB-DL 1080p] killermax2013 Скачать
1 | 0


>> Регистрируемся здесь <<






Отзывы и комментарии о схеме читаем и пишем здесь: ---> Отзывы и комментарии о схеме

Новые благодарочки в телеграм довольных пользователей:
скриншот   скриншот   скриншот   скриншот   скриншот
    Дорогой пользователь! Огромная просьба, поблагодарите релизера, оцените раздачу и оставьте свои комментарий, если Вы скачали Пенниуорт через торрент бесплатно! Внесите свою лепту в развитие PiratBit!
    Комментировать посты могут только пользователи прошедшие не сложную регистрацию
    Показать сообщения:    

    Пенниуорт через торрент
    Скачать бесплатно Пенниуорт
    Пенниуорт скачать торрент
    Пенниуорт смотреть онлайн
    Cкачать фильм Пенниуорт бесплатно
    Пенниуорт скачать торрент в хорошем качестве
    Пенниуорт смотреть онлайн бесплатно в хорошем качестве


    Вы не можете начинать темы
    Вы не можете отвечать на сообщения
    Вы не можете редактировать свои сообщения
    Вы не можете удалять свои сообщения
    Вы не можете голосовать в опросах
    Вы не можете прикреплять файлы к сообщениям
    Вы можете скачивать файлы