новый адрес пиратбит piratbit
MEGA NEWS Получи личный уникальный адрес сайта и защити себя от блокировок. Внимание количество ограничено!!!

iTunes

1+1

iTunes

мы

iTunes

1

iTunes

Чернобыль

iTunes

Ральф против интернета

Лицензия

ПШазам

Лицензия

Игра престолов

Лицензия

30
pack

ВАЖНО

!!Акция!!

Alien_RageХит недели

RePack

Resident Evil 21

ИГРА 18+

pack

RePack

Metro:Exodus

!!Акция!!

Alien_Rage

RePack

fifa19

RePack

Assassins Creed: Odyssey

RePack

NEED FOR SPEED™ PAYBACK

3 сезон

9 сезон

Бесстыжие 9 сезон

Все сериалы

все сериалы на PB.wtf

RePack

FAR CRY 5
Ребята, катастрофически не хватает 1900р. для оплаты серверов за АВГУСТ (всвязи с блокировками трафик упал в 3 раза), 1-2р., выручайте.
  

Трудная ночь в Иерихоне / Rough Night in Jericho (Арнольд Лейвен) [1967, мелодрама, вестерн, BDRip 1080p by msltel] AVO pb.wtf

Трудная ночь в Иерихоне через торрент pb.wtf

Раздают: 1 [ 0 KB/s ]
Размер: 9.83 GB | Добавлен: 26 д. назад | Торрент скачан:2 раза
Скачать  

26-09-2019 10:14 Трудная ночь в Иерихоне Скачать торрент  

Название: Трудная ночь в Иерихоне
Оригинальное название: Rough Night in Jericho
Год выпуска: 1967
Страна: США
Жанр: мелодрама, вестерн
Продолжительность: 01:43:38
Перевод: авторский

Режиссер: Арнольд Лейвен
В ролях: Дин Мартин, Джордж Пеппард, Джин Симмонс, Джон МакИнтайр, Слим Пикенс, Дон Гэллоуэй, Брэд Уэстон, Ричард О’Брайэн, Кэрол Эндресон, Стив Сэндор

О фильме: Бывший шериф и его помощник решают организовать предприятие по пассажирским перевозкам. Но на их пути возникает местный босс, требующий 51% с нового дела. Столкновение неизбежно. Действие развивается согласно всем канонам жанра...



Качество: BDRip 1080p
Формат: MKV
Видео: MPEG-4 AVC, 11.9 Mбит/с, 1920x816, 23.976 кадр/c
Аудио 1: русский, AC3, 192 kbps, 2 ch, 48 kHz [авторский, Василий Горчаков]
Аудио 2: английский, DTS, 1509 kbps, 2 ch, 48 kHz [оригинал]
Субтитры: английские
Главы/чаптеры
Общее
Уникальный идентификатор : 238158469773298948458065024621253891431 (0xB32BA720D2992675BEEF156B7EE61567)
Полное имя : D:\Video\Трудная ночь в Иерихоне.1967.BDRip 1080p by msltel.mkv
Формат : Matroska
Версия формата : Version 4
Размер файла : 9,83 Гбайт
Продолжительность : 1 ч. 43 м.
Общий поток : 13,6 Мбит/сек
Название фильма : Rip by msltel
Дата кодирования : UTC 2019-09-26 07:39:15
Программа кодирования : mkvmerge v8.2.0 ('World of Adventure') 64bit
Библиотека кодирования : libebml v1.3.1 + libmatroska v1.4.2

Видео
Идентификатор : 1
Формат : AVC
Формат/Информация : Advanced Video Codec
Профиль формата : High@L4.1
Настройки формата : CABAC / 4 Ref Frames
Параметр CABAC формата : Да
Параметр RefFrames формата : 4 кадра
Идентификатор кодека : V_MPEG4/ISO/AVC
Продолжительность : 1 ч. 43 м.
Битрейт : 11,9 Мбит/сек
Ширина : 1920 пикселей
Высота : 816 пикселей
Соотношение сторон : 2,35:1
Режим частоты кадров : Постоянный
Частота кадров : 23,976 (24000/1001) кадра/сек
Цветовое пространство : YUV
Субдискретизация насыщенности : 4:2:0
Битовая глубина : 8 бит
Тип развёртки : Прогрессивная
Бит/(Пиксели*Кадры) : 0.316
Размер потока : 8,60 Гбайт (87%)
Библиотека кодирования : x264 core 157 r2935 545de2f
Настройки программы : cabac=1 / ref=4 / deblock=1:-2:-2 / analyse=0x3:0x113 / me=umh / subme=11 / psy=1 / psy_rd=1.00:0.15 / mixed_ref=1 / me_range=32 / chroma_me=1 / trellis=2 / 8x8dct=1 / cqm=0 / deadzone=21,11 / fast_pskip=0 / chroma_qp_offset=-3 / threads=6 / lookahead_threads=1 / sliced_threads=0 / nr=0 / decimate=1 / interlaced=0 / bluray_compat=0 / constrained_intra=0 / bframes=6 / b_pyramid=2 / b_adapt=2 / b_bias=0 / direct=1 / weightb=1 / open_gop=0 / weightp=2 / keyint=230 / keyint_min=23 / scenecut=40 / intra_refresh=0 / rc_lookahead=40 / rc=crf / mbtree=1 / crf=19.0 / qcomp=0.60 / qpmin=0 / qpmax=69 / qpstep=4 / vbv_maxrate=50000 / vbv_bufsize=62500 / crf_max=0.0 / nal_hrd=none / filler=0 / ip_ratio=1.40 / aq=1:1.00
Язык : English
Default : Да
Forced : Нет

Аудио #1
Идентификатор : 2
Формат : AC-3
Формат/Информация : Audio Coding 3
Коммерческое название : Dolby Digital
Идентификатор кодека : A_AC3
Продолжительность : 1 ч. 43 м.
Вид битрейта : Постоянный
Битрейт : 192 Кбит/сек
Каналы : 2 канала
ChannelLayout : L R
Частота : 48,0 КГц
Частота кадров : 31,250 кадров/сек (1536 SPF)
Метод сжатия : С потерями
Размер потока : 142 Мбайт (1%)
Заголовок : Василий Горчаков
Язык : Russian
ServiceKind/String : Complete Main
Default : Да
Forced : Нет

Аудио #2
Идентификатор : 3
Формат : DTS
Формат/Информация : Digital Theater Systems
Идентификатор кодека : A_DTS
Продолжительность : 1 ч. 43 м.
Вид битрейта : Постоянный
Битрейт : 1509 Кбит/сек
Каналы : 2 канала
ChannelLayout : L R
Частота : 48,0 КГц
Частота кадров : 93,750 кадра/сек (512 SPF)
Битовая глубина : 24 бит
Метод сжатия : С потерями
Размер потока : 1,09 Гбайт (11%)
Заголовок : original
Язык : English
Default : Нет
Forced : Нет

Текст
Идентификатор : 4
Формат : UTF-8
Идентификатор кодека : S_TEXT/UTF8
Идентификатор кодека/Информация : UTF-8 Plain Text
Продолжительность : 1 ч. 38 м.
Битрейт : 43 бит/сек
ElementCount : 1223
Размер потока : 31,2 Кбайт (0%)
Заголовок : английские
Язык : English
Default : Нет
Forced : Нет

Меню
00:00:00.000 : en:Chapter 01
00:08:22.210 : en:Chapter 02
00:15:37.019 : en:Chapter 03
00:21:44.219 : en:Chapter 04
00:33:38.641 : en:Chapter 05
00:42:11.862 : en:Chapter 06
00:51:39.262 : en:Chapter 07
00:58:11.029 : en:Chapter 08
01:07:54.278 : en:Chapter 09
01:14:30.299 : en:Chapter 10
01:23:29.379 : en:Chapter 11
01:34:14.649 : en:Chapter 12
01:42:00.030 : en:Chapter 13
pb.wtf



Скачать Трудная ночь в Иерихоне через торрент https://d.radikal.ru/d20/1909/ea/be8a59185bf5.jpg Скачать фильм Трудная ночь в Иерихоне через торрент бесплантно в хорошем качестве О фильме: Бывший шериф и его помощник решают организовать предприятие по пассажирским перевозкам. Но на их пути возникает местный босс, ... 10 10 2
Торрент: Зарегистрирован [2019-09-26 10:14] · скачан: 2 раз
Статус: √ проверено
Размер: 9.83 GB
Как cкачать? Как скачать Трудная ночь в Иерихоне через торрент | qTorrent

% Раздел Тема Автор DL S | L
Классика зарубежного кино [ 3.75 GB ] Трудная ночь в Иерихоне / Rough Night in Jericho [1967 BDRip 720p by msltel] AVO msltel Скачать
2 | 0


>> Регистрируемся здесь <<






Отзывы и комментарии о схеме читаем и пишем здесь: ---> Отзывы и комментарии о схеме

Новые благодарочки в телеграм довольных пользователей:
скриншот   скриншот   скриншот   скриншот   скриншот
    Дорогой пользователь! Огромная просьба, поблагодарите релизера, оцените раздачу и оставьте свои комментарий, если Вы скачали Трудная ночь в Иерихоне через торрент бесплатно! Внесите свою лепту в развитие PiratBit!
    Комментировать посты могут только пользователи прошедшие не сложную регистрацию
    Показать сообщения:    

    Трудная ночь в Иерихоне через торрент
    Скачать бесплатно Трудная ночь в Иерихоне
    Трудная ночь в Иерихоне скачать торрент
    Трудная ночь в Иерихоне смотреть онлайн
    Cкачать фильм Трудная ночь в Иерихоне бесплатно
    Трудная ночь в Иерихоне скачать торрент в хорошем качестве
    Трудная ночь в Иерихоне смотреть онлайн бесплатно в хорошем качестве


    Вы не можете начинать темы
    Вы не можете отвечать на сообщения
    Вы не можете редактировать свои сообщения
    Вы не можете удалять свои сообщения
    Вы не можете голосовать в опросах
    Вы не можете прикреплять файлы к сообщениям
    Вы можете скачивать файлы