Ссылка на приватное зеркало нашего сайта всего за 1$. Внимание количество ограничено!!!

2 сезон

iTunes

1 сезон

1

2 сезон

2 сезон

iTunes

1 сезон

RePack

30

Новинка

ВАЖНО

ИГРА 18+

pack

RePack

MK11
pack

Забери бонус

RePack

jed

!!Акция!!

Alien_Rage

RePack

fifa19

RePack

Assassins Creed: Odyssey

RePack

NEED FOR SPEED™ PAYBACK

4 сезон

9 сезон

Бесстыжие 9 сезон

Все сериалы

все сериалы на PB.wtf

RePack

FAR CRY 5
  

Гипнотизёр / The Pinch (B. Skow. / Vivid.) [2009 г., Feature, Comedy., WEB-DLRip AVC] MVO (телеканал O-la-la) pb.wtf

Гипнотизёр через торрент pb.wtf

Раздают: 1 [ 0 KB/s ]
Размер: 2.74 GB | Добавлен: 1 год 2 мес. назад | Торрент скачан:345 раз
Скачать  

26-09-2019 13:28 Гипнотизёр Скачать торрент  

Гипнотизёр / The Pinch
Год выпуска: 2009

Страна: США

Жанр: Feature, Comedy

Продолжительность: 02:41:38

Перевод: Профессиональный (многоголосый) - телеканал O-la-la

Режиссер: B. Skow

В ролях: Meggan Mallone, Sunny Lane, Renae Cruz, Rachel Solari, Raquelle De Rossi, Claudia Rossi, Nick Manning, Tommy Gunn, Evan Stone, Voodoo

Описание: Забавная комедия о трёх друзьях-факерах. Двое из них случайно узнают, что третий обладатель ну очень маленькой проблемы. Совсем крошечной. И решают его разыграть.
Доп. информация: Кстати из фильма вы узнаете, что такое Эсси.
Качество: WEB-DLRip AVC
Формат: MKV
Видео: MPEG 4 AVC, 1280x720, 29.970fps, 2000kbps
Аудио#1: Русский, MP3, 2 ch, 192 Кбит/с
Аудио#2: Английский, MP3, 2 ch, 256 Кбит/сек
Видео
Идентификатор : 1
Формат : AVC
Формат/Информация : Advanced Video Codec
Профиль формата : High@L3.1
Настройки формата : CABAC / 4 Ref Frames
Параметр CABAC формата : Да
Параметр RefFrames формата : 4 кадра
Режим смешивания : Header stripping
Идентификатор кодека : V_MPEG4/ISO/AVC
Продолжительность : 2 ч. 41 м.
Битрейт : 2000 Кбит/сек
Ширина : 1280 пикселей
Высота : 720 пикселей
Соотношение сторон : 16:9
Режим частоты кадров : Постоянный
Частота кадров : 29,970 (30000/1001) кадров/сек
Цветовое пространство : YUV
Субдискретизация насыщенности : 4:2:0
Битовая глубина : 8 бит
Тип развёртки : Прогрессивная
Бит/(Пиксели*Кадры) : 0.072
Размер потока : 2,18 Гбайт (80%)
Библиотека кодирования : x264 core 114 r1924 08d04a4
Настройки программы : cabac=1 / ref=4 / deblock=1:0:0 / analyse=0x3:0x113 / me=esa / subme=10 / psy=1 / psy_rd=1.00:0.00 / mixed_ref=1 / me_range=32 / chroma_me=1 / trellis=2 / 8x8dct=1 / cqm=0 / deadzone=21,11 / fast_pskip=0 / chroma_qp_offset=-2 / threads=1 / sliced_threads=0 / nr=0 / decimate=1 / interlaced=0 / constrained_intra=0 / bframes=16 / b_pyramid=2 / b_adapt=2 / b_bias=0 / direct=0 / weightb=0 / open_gop=0 / weightp=0 / keyint=300 / keyint_min=25 / scenecut=40 / intra_refresh=0 / rc_lookahead=40 / rc=2pass / mbtree=1 / bitrate=2000 / ratetol=1.0 / qcomp=0.60 / qpmin=10 / qpmax=51 / qpstep=4 / cplxblur=20.0 / qblur=0.5 / vbv_maxrate=2200 / vbv_bufsize=2200 / nal_hrd=none / ip_ratio=1.41 / aq=1:1.00
Default : Да
Forced : Нет

Аудио #1
Идентификатор : 2
Формат : MPEG Audio
Версия формата : Version 1
Профиль формата : Layer 3
Настройки формата : Joint stereo
Режим смешивания : Header stripping
Идентификатор кодека : A_MPEG/L3
Идентификатор кодека/Подсказка : MP3
Продолжительность : 2 ч. 41 м.
Вид битрейта : Постоянный
Битрейт : 192 Кбит/сек
Каналы : 2 канала
Частота : 48,0 КГц
Метод сжатия : С потерями
Размер потока : 222 Мбайт (8%)
Язык : Russian
Default : Да
Forced : Нет

Аудио #2
Идентификатор : 3
Формат : MPEG Audio
Версия формата : Version 1
Профиль формата : Layer 3
Режим смешивания : Header stripping
Идентификатор кодека : A_MPEG/L3
Идентификатор кодека/Подсказка : MP3
Продолжительность : 2 ч. 41 м.
Вид битрейта : Постоянный
Битрейт : 256 Кбит/сек
Каналы : 2 канала
Частота : 44,1 КГц
Метод сжатия : С потерями
Размер потока : 296 Мбайт (11%)
Язык : English
Default : Нет
Forced : Нет

скриншот  

pb.wtf



pack Скачать Гипнотизёр через торрент http://pic1.kartinco.top/images/12/zgk98.jpg Скачать фильм Гипнотизёр через торрент бесплантно в хорошем качестве Описание: Забавная комедия о трёх друзьях-факерах. Двое из них случайно узнают, что третий обладатель ну очень маленькой проблемы. Совсем ... 9.6 10 12
Info! Золотая раздача, скачанное не засчитывается.
Торрент: Зарегистрирован [2019-09-26 13:34] · скачан: 345 раз
Статус: √ проверено
Размер: 2.74 GB
Как cкачать? Как скачать Гипнотизёр через торрент | qTorrent

% Раздел Тема Автор DL S | L
Порно фильмы с русским переводом [ 1.29 GB ] Гипнотизёр. / The Pinch. [2014 Feature Comedy. WEB-DLRip многоголосый] Pir@tya2010 Скачать
1 | 0

28-11-2019 20:33  

Отключить всю рекламу на сайте

    Дорогой пользователь! Огромная просьба, поблагодарите релизера, оцените раздачу и оставьте свои комментарий, если Вы скачали Гипнотизёр через торрент бесплатно! Внесите свою лепту в развитие PiratBit!
    Комментировать посты могут только пользователи прошедшие не сложную регистрацию
    Показать сообщения:    

    Гипнотизёр через торрент
    Скачать бесплатно Гипнотизёр
    Гипнотизёр скачать торрент
    Гипнотизёр смотреть онлайн
    Cкачать фильм Гипнотизёр бесплатно
    Гипнотизёр скачать торрент в хорошем качестве
    Гипнотизёр смотреть онлайн бесплатно в хорошем качестве


    Вы не можете начинать темы
    Вы не можете отвечать на сообщения
    Вы не можете редактировать свои сообщения
    Вы не можете удалять свои сообщения
    Вы не можете голосовать в опросах
    Вы не можете прикреплять файлы к сообщениям
    Вы можете скачивать файлы