новый адрес
Ссылка на приватное зеркало всего за 1$. Внимание количество ограничено!!!

iTunes

1+1

iTunes

мы

WEB-DL

1

iTunes

Чернобыль

iTunes

Ральф против интернета

Лицензия

ПШазам

Лицензия

Оно 2

Лицензия

30
pack

Вам бонус

ВАЖНО

!!Акция!!

Alien_RageХит недели

RePack

Resident Evil 21

ИГРА 18+

pack

RePack

jed

!!Акция!!

Alien_Rage

RePack

fifa19

RePack

Assassins Creed: Odyssey

RePack

NEED FOR SPEED™ PAYBACK

3 сезон

9 сезон

Бесстыжие 9 сезон

Все сериалы

все сериалы на PB.wtf

RePack

FAR CRY 5
Ребята, катастрофически не хватает 1900р. для оплаты серверов за Октябрь (всвязи с блокировками трафик упал в 3 раза), 1-2р., выручайте.
  

Человек будущего / The Tomorrow Man (Ноубл Линкольн Джонс) [2019 г., драма, мелодрама, WEB-DLRip, Профессиональный многоголосый закадровый "iTunes"] pb.wtf

Человек будущего через торрент pb.wtf

Размер: 709 MB | Добавлен: 2 мес. 12 д. назад | Торрент скачан:21 раз
Скачать  

26-09-2019 18:30 Человек будущего Скачать торрент  

Человек будущего / The Tomorrow Man
Год выпуска: 2019
Страна: США / Symbolic Exchange, Anonymous Content
Жанр: драма, мелодрама
Продолжительность: 01:35:18
Перевод: Профессиональный многоголосый закадровый (iTunes)

Режиссер: Ноубл Линкольн Джонс

rating

В ролях: Джон Литгоу, Блайт Даннер, Дерек Сесил, Кэтрин Аселтон, Софи Тэтчер, Ив Харлоу, Уэнди Маккена, Isabelle Boni, Shawn M. Essler, Anthony Lafornara

Описание: Любви все возрасты покорны. Эд переживает о будущем и готовится к концу света, а Ронни не может забыть прошлое. Но вместе они смогут вспомнить, что значит жить настоящим.

Качество: WEB-DLRip
Формат: AVI
Видео кодек: DivX
Аудио кодек: MP3
Видео: 640x272 (2.35:1), 23.976 fps, DivX Codec 4.x ~902 kbps avg, 0.22 bit/pixel
Аудио: 48 kHz, MPEG Layer 3, 2 ch, ~128.00 kbps avg
скриншот   скриншот   скриншот   скриншот  

Общее
Полное имя : F:\ФИЛЬМЫ\Человек будущего.2019.WEB-DLRip(AMAZON).avi
Формат : AVI
Формат/Информация : Audio Video Interleave
Размер файла : 709 Мбайт
Продолжительность : 1 ч. 35 м.
Общий поток : 1040 Кбит/сек
Программа кодирования : VirtualDubMod 1.5.10.3 | www.virtualdub-fr.org || (build 2550/release)
Библиотека кодирования : VirtualDubMod build 2550/release

Видео
Идентификатор : 0
Формат : MPEG-4 Visual
Профиль формата : Advanced Simple@L5
Настройки формата : BVOP3 / GMC3 / QPel
Параметр BVOP формата : 3
Параметр QPel формата : Да
Параметр GMC формата : 3 точки перехода
Параметр матрицы формата : Default (MPEG)
Идентификатор кодека : DIVX
Идентификатор кодека/Информация : Project Mayo
Идентификатор кодека/Подсказка : DivX 4
Продолжительность : 1 ч. 35 м.
Битрейт : 902 Кбит/сек
Ширина : 640 пикселей
Высота : 272 пикселя
Соотношение сторон : 2,35:1
Частота кадров : 23,976 (24000/1001) кадра/сек
Цветовое пространство : YUV
Субдискретизация насыщенности : 4:2:0
Битовая глубина : 8 бит
Тип развёртки : Прогрессивная
Метод сжатия : С потерями
Бит/(Пиксели*Кадры) : 0.216
Размер потока : 615 Мбайт (87%)
Библиотека кодирования : XviD 1.2.1 (UTC 2008-12-04)

Аудио
Идентификатор : 1
Формат : MPEG Audio
Версия формата : Version 1
Профиль формата : Layer 3
Настройки формата : Joint stereo / MS Stereo
Идентификатор кодека : 55
Идентификатор кодека/Подсказка : MP3
Продолжительность : 1 ч. 35 м.
Вид битрейта : Постоянный
Битрейт : 128 Кбит/сек
Каналы : 2 канала
Частота : 48,0 КГц
Частота кадров : 41,667 кадра/сек (1152 SPF)
Метод сжатия : С потерями
Размер потока : 87,3 Мбайт (12%)
Выравнивание : Соединение по промежуткам
Продолжительность промежутка : 42 мс. (1,00 видеокадр)
Время предзагрузки промежутка : 504 мс.
Библиотека кодирования : LAME3.99r
Настройки программы : -m j -V 4 -q 2 -lowpass 17 -b 128

pb.wtf



Скачать Человек будущего через торрент http://pic1.kartinco.top/images/12/g4wum.jpg Скачать фильм Человек будущего через торрент бесплантно в хорошем качестве Описание: Любви все возрасты покорны. Эд переживает о будущем и готовится к концу света, а Ронни не может забыть прошлое. Но вместе они ... 1 10 1
Торрент: Зарегистрирован [2019-09-26 18:30] · скачан: 21 раз
Статус: √ проверено
Размер: 709 MB
Как cкачать? Как скачать Человек будущего через торрент | qTorrent

% Раздел Тема Автор DL S | L
Фильмы (WEB-DL 720p, 1080p) [ 3.43 GB ] Человек будущего / The Tomorrow Man [2019 WEB-DL 1080p] MVO bober100 Скачать
2 | 0
Фильмы 2019 [DVDrip, WEB-DLRip, HDrip] (DUB, MVO) [ 1.46 GB ] Человек будущего / The Tomorrow Man [2019 WEB-DLRip] MVO bober100 Скачать
1 | 0

28-11-2019 20:33  

Отключить всю рекламу на сайте

    Дорогой пользователь! Огромная просьба, поблагодарите релизера, оцените раздачу и оставьте свои комментарий, если Вы скачали Человек будущего через торрент бесплатно! Внесите свою лепту в развитие PiratBit!
    Комментировать посты могут только пользователи прошедшие не сложную регистрацию
    Показать сообщения:    

    Человек будущего через торрент
    Скачать бесплатно Человек будущего
    Человек будущего скачать торрент
    Человек будущего смотреть онлайн
    Cкачать фильм Человек будущего бесплатно
    Человек будущего скачать торрент в хорошем качестве
    Человек будущего смотреть онлайн бесплатно в хорошем качестве


    Вы не можете начинать темы
    Вы не можете отвечать на сообщения
    Вы не можете редактировать свои сообщения
    Вы не можете удалять свои сообщения
    Вы не можете голосовать в опросах
    Вы не можете прикреплять файлы к сообщениям
    Вы можете скачивать файлы