Ссылка на приватное зеркало всего за 1$. Внимание количество ограничено!!!

OK

1+1

iTunes

мы

OK

1

WEB-DLRip

Джокер

Пифагор

Ведьмак / The Witcher сериал

Лицензия

ПШазам

ОК

Оно 2

iTunes

30
pack

Вам бонус

ВАЖНО

!!Акция!!

Alien_RageХит недели

RePack

Resident Evil 21

ИГРА 18+

pack

RePack

jed

!!Акция!!

Alien_Rage

RePack

fifa19

RePack

Assassins Creed: Odyssey

RePack

NEED FOR SPEED™ PAYBACK

4 сезон

9 сезон

Бесстыжие 9 сезон

Все сериалы

все сериалы на PB.wtf

RePack

FAR CRY 5
  

Человек-паук: Вдали от дома / Spider-Man: Far from Home (Джон Уоттс) [2019, фантастика, боевик, приключения, UHD BDRip 2160p] DUB (rus, ukr) [Лицензия] +MVO [HDrezka Studio] pb.wtf

Человек-паук: Вдали от дома через торрент pb.wtf

Раздают: 2 [ 768 KB/s ]
Размер: 11.35 GB | Добавлен: 2 мес. 28 д. назад | Торрент скачан:59 раз
Скачать  

26-09-2019 20:07 Человек-паук: Вдали от дома Скачать торрент  

Человек-паук: Вдали от дома / Spider-Man: Far from Home
Год выпуска: 2019
Страна: США
Жанр: фантастика, боевик, приключения
Продолжительность: 02:09:23
Перевод:

#1: Дублированный | Лицензия
#2: Профессиональный (многоголосый) | HDRezka studio

Субтитры: Русские (Forced, 2 x full), украинские (Full), английские

Режиссер: Джон Уоттс

rating

В ролях: Том Холланд, Зендея, Энгаури Райс, Джон Фавро, Джейк Джилленхол, Сэмюэл Л. Джексон, Коби Смолдерс, Мариса Томей, Мартин Старр, Дж.К. Симмонс

Описание: Питер Паркер вместе с друзьями отправляется на летние каникулы в Европу. Однако отдохнуть приятелям вряд ли удастся - Питеру придется согласиться помочь Нику Фьюри раскрыть тайну существ, вызывающих стихийные бедствия и разрушения по всему континенту.

Качество: UHD BDRip 2160p
Формат: MKV

Видео: HEVC HDR, 7774 Кбит/с, 3840x1608, 23.976 кадр/с, 10 бит
Аудио#1: 48 kHz, AC3, 5.1, 640 Kbps | Лицензия | RUS |
Аудио#2: 48 kHz, AC3, 2.0, 192 Kbps | HDRezka Studio | RUS |
Аудио#3: 48 kHz, AC3, 2.0, 160 Kbps | iTunes | UKR |
Аудио#4: 48 kHz, TrueHD, 7.1, 3077 Kbps | Оригинал | ENG |
Аудио#5: 48 kHz, AC3, 5.1, 640 Kbps | Оригинал | ENG |
скриншот  скриншот  скриншот  скриншот  

Общее
Уникальный идентификатор : 229099132472783943221616395705765701336 (0xAC5AE35071FCA7F2851A1BA9AAF1A6D8)
Полное имя : D:\Передел\Spider-Man.Far.From.Home.2019.2160p.UHD.BDRip.HDR.x265.10bit.Master5.mkv
Формат : Matroska
Версия формата : Version 4
Размер файла : 11,3 Гбайт
Продолжительность : 2 ч. 9 м.
Режим общего битрейта : Переменный
Общий поток : 12,6 Мбит/сек
Название фильма : Spider-Man.Far.From.Home.2019.2160p.UHD.BDRip.HDR.x265.10bit.Master5
Дата кодирования : UTC 2019-10-23 05:38:55
Программа кодирования : mkvmerge v7.9.0 ('Birds') 64bit
Библиотека кодирования : libebml v1.3.1 + libmatroska v1.4.2

Видео
Идентификатор : 1
Формат : HEVC
Формат/Информация : High Efficiency Video Coding
Коммерческое название : HDR10
Профиль формата : Main 10@L5.1@High
Идентификатор кодека : V_MPEGH/ISO/HEVC
Продолжительность : 2 ч. 9 м.
Битрейт : 7774 Кбит/сек
Ширина : 3840 пикселей
Высота : 1608 пикселей
Соотношение сторон : 2,40:1
Режим частоты кадров : Постоянный
Частота кадров : 23,976 (24000/1001) кадра/сек
Цветовое пространство : YUV
Субдискретизация насыщенности : 4:2:0 (Type 2)
Битовая глубина : 10 бит
Бит/(Пиксели*Кадры) : 0.053
Размер потока : 7,03 Гбайт (62%)
Заголовок : Spider-Man.Far.From.Home.2019.2160p.UHD.BDRip.HDR.x265.10bit.Master5
Библиотека кодирования : x265 3.1+11-de920e0a3183:[Windows][GCC 6.3.0][64 bit] 10bit
Настройки программы : cpuid=1176575 / frame-threads=5 / numa-pools=36 / wpp / no-pmode / no-pme / no-psnr / no-ssim / log-level=2 / input-csp=1 / input-res=3840x1608 / interlace=0 / total-frames=186144 / level-idc=51 / high-tier=1 / uhd-bd=0 / ref=4 / no-allow-non-conformance / repeat-headers / annexb / aud / hrd / info / hash=0 / no-temporal-layers / no-open-gop / min-keyint=1 / keyint=24 / gop-lookahead=0 / bframes=4 / b-adapt=2 / b-pyramid / bframe-bias=0 / rc-lookahead=25 / lookahead-slices=4 / scenecut=40 / radl=0 / no-splice / no-intra-refresh / ctu=64 / min-cu-size=8 / rect / no-amp / max-tu-size=32 / tu-inter-depth=1 / tu-intra-depth=1 / limit-tu=0 / rdoq-level=2 / dynamic-rd=0.00 / no-ssim-rd / signhide / no-tskip / nr-intra=0 / nr-inter=0 / no-constrained-intra / no-strong-intra-smoothing / max-merge=3 / limit-refs=3 / limit-modes / me=3 / subme=3 / merange=57 / temporal-mvp / no-hme / weightp / no-weightb / no-analyze-src-pics / deblock=-3:-3 / no-sao / no-sao-non-deblock / rd=4 / no-early-skip / rskip / no-fast-intra / no-tskip-fast / no-cu-lossless / no-b-intra / no-splitrd-skip / rdpenalty=0 / psy-rd=2.00 / psy-rdoq=1.00 / no-rd-refine / no-lossless / cbqpoffs=0 / crqpoffs=0 / rc=crf / crf=17.0 / qcomp=0.60 / qpstep=4 / stats-write=0 / stats-read=0 / vbv-maxrate=160000 / vbv-bufsize=160000 / vbv-init=0.9 / crf-max=0.0 / crf-min=0.0 / ipratio=1.40 / pbratio=1.30 / aq-mode=2 / aq-strength=1.00 / cutree / zone-count=0 / no-strict-cbr / qg-size=32 / no-rc-grain / qpmax=69 / qpmin=0 / no-const-vbv / sar=1 / overscan=0 / videoformat=5 / range=0 / colorprim=9 / transfer=16 / colormatrix=9 / chromaloc=1 / chromaloc-top=2 / chromaloc-bottom=2 / display-window=0 / master-display=G(13250,34500)B(7500,3000)R(34000,16000)WP(15635,16450)L(10000000,1)cll=9978,614 / min-luma=0 / max-luma=1023 / log2-max-poc-lsb=8 / vui-timing-info / vui-hrd-info / slices=1 / no-opt-qp-pps / no-opt-ref-list-length-pps / no-multi-pass-opt-rps / scenecut-bias=0.05 / no-opt-cu-delta-qp / no-aq-motion / hdr / hdr-opt / no-dhdr10-opt / no-idr-recovery-sei / analysis-reuse-level=5 / scale-factor=0 / refine-intra=0 / refine-inter=0 / refine-mv=0 / refine-ctu-distortion=0 / no-limit-sao / ctu-info=0 / no-lowpass-dct / refine-analysis-type=0 / copy-pic=1 / max-ausize-factor=1.0 / no-dynamic-refine / no-single-sei / no-hevc-aq / no-svt / no-field / qp-adaptation-range=1.00
Default : Да
Forced : Нет
Цветовой диапазон : Limited
Основные цвета : BT.2020
Характеристики трансфера : PQ
Коэффициенты матрицы : BT.2020 non-constant
MasteringDisplay_ColorPrimaries : Display P3
MasteringDisplay_Luminance : min: 0.0001 cd/m2, max: 1000 cd/m2
MaxCLL : 9978 cd/m2
MaxFALL : 614 cd/m2

Аудио #1
Идентификатор : 2
Формат : AC-3
Формат/Информация : Audio Coding 3
Коммерческое название : Dolby Digital
Идентификатор кодека : A_AC3
Продолжительность : 2 ч. 9 м.
Вид битрейта : Постоянный
Битрейт : 640 Кбит/сек
Каналы : 6 каналов
Channel layout : L R C LFE Ls Rs
Частота : 48,0 КГц
Частота кадров : 31,250 кадров/сек (1536 SPF)
Битовая глубина : 16 бит
Метод сжатия : С потерями
Размер потока : 592 Мбайт (5%)
Заголовок : Dub License
Язык : Russian
ServiceKind/String : Complete Main
Default : Да
Forced : Да

Аудио #2
Идентификатор : 3
Формат : AC-3
Формат/Информация : Audio Coding 3
Коммерческое название : Dolby Digital
Идентификатор кодека : A_AC3
Продолжительность : 2 ч. 9 м.
Вид битрейта : Постоянный
Битрейт : 192 Кбит/сек
Каналы : 2 канала
Channel layout : L R
Частота : 48,0 КГц
Частота кадров : 31,250 кадров/сек (1536 SPF)
Битовая глубина : 16 бит
Метод сжатия : С потерями
Размер потока : 178 Мбайт (2%)
Заголовок : MVO HDRezka Studio
Язык : Russian
ServiceKind/String : Complete Main
Default : Нет
Forced : Нет

Аудио #3
Идентификатор : 4
Формат : AC-3
Формат/Информация : Audio Coding 3
Коммерческое название : Dolby Digital
Идентификатор кодека : A_AC3
Продолжительность : 2 ч. 9 м.
Вид битрейта : Постоянный
Битрейт : 160 Кбит/сек
Каналы : 2 канала
Channel layout : L R
Частота : 48,0 КГц
Частота кадров : 31,250 кадров/сек (1536 SPF)
Битовая глубина : 16 бит
Метод сжатия : С потерями
Размер потока : 148 Мбайт (1%)
Заголовок : Dub
Язык : Ukrainian
ServiceKind/String : Complete Main
Default : Нет
Forced : Нет

Аудио #4
Идентификатор : 5
Формат : MLP FBA 16-ch
Формат/Информация : Meridian Lossless Packing FBA with 16-channel presentation
Коммерческое название : Dolby TrueHD with Dolby Atmos
Идентификатор кодека : A_TRUEHD
Продолжительность : 2 ч. 9 м.
Вид битрейта : Переменный
Битрейт : 3077 Кбит/сек
Максимальный битрейт : 5397 Кбит/сек
Каналы : 8 каналов
Channel layout : L R C LFE Ls Rs Lb Rb
Частота : 48,0 КГц
Частота кадров : 1200,000 кадров/сек (40 SPF)
Метод сжатия : Без потерь
Размер потока : 2,78 Гбайт (25%)
Заголовок : Original
Язык : English
Default : Нет
Forced : Нет
Number of dynamic objects : 11
Bed channel count : 1 канал
Bed channel configuration : LFE

Аудио #5
Идентификатор : 6
Формат : AC-3
Формат/Информация : Audio Coding 3
Коммерческое название : Dolby Digital
Идентификатор кодека : A_AC3
Продолжительность : 2 ч. 9 м.
Вид битрейта : Постоянный
Битрейт : 640 Кбит/сек
Каналы : 6 каналов
Channel layout : L R C LFE Ls Rs
Частота : 48,0 КГц
Частота кадров : 31,250 кадров/сек (1536 SPF)
Битовая глубина : 16 бит
Метод сжатия : С потерями
Размер потока : 592 Мбайт (5%)
Заголовок : Original
Язык : English
ServiceKind/String : Complete Main
Default : Нет
Forced : Нет

Текст #1
Идентификатор : 7
Формат : UTF-8
Идентификатор кодека : S_TEXT/UTF8
Идентификатор кодека/Информация : UTF-8 Plain Text
Продолжительность : 2 ч. 8 м.
Битрейт : 0 бит/сек
ElementCount : 13
Размер потока : 582 байт (0%)
Заголовок : Forced
Язык : Russian
Default : Да
Forced : Да

Текст #2
Идентификатор : 8
Формат : UTF-8
Идентификатор кодека : S_TEXT/UTF8
Идентификатор кодека/Информация : UTF-8 Plain Text
Продолжительность : 2 ч. 8 м.
Битрейт : 92 бит/сек
ElementCount : 1666
Размер потока : 86,8 Кбайт (0%)
Заголовок : Full
Язык : Russian
Default : Нет
Forced : Нет

Текст #3
Идентификатор : 9
Формат : UTF-8
Идентификатор кодека : S_TEXT/UTF8
Идентификатор кодека/Информация : UTF-8 Plain Text
Продолжительность : 2 ч. 8 м.
Битрейт : 92 бит/сек
ElementCount : 1666
Размер потока : 86,8 Кбайт (0%)
Заголовок : Full Елена, Лев Вержбицкие
Язык : Russian
Default : Нет
Forced : Нет

Текст #4
Идентификатор : 10
Формат : UTF-8
Идентификатор кодека : S_TEXT/UTF8
Идентификатор кодека/Информация : UTF-8 Plain Text
Продолжительность : 2 ч. 8 м.
Битрейт : 94 бит/сек
ElementCount : 1759
Размер потока : 89,3 Кбайт (0%)
Заголовок : Full
Язык : Ukrainian
Default : Нет
Forced : Нет

Текст #5
Идентификатор : 11
Формат : UTF-8
Идентификатор кодека : S_TEXT/UTF8
Идентификатор кодека/Информация : UTF-8 Plain Text
Продолжительность : 2 ч. 7 м.
Битрейт : 62 бит/сек
ElementCount : 1749
Размер потока : 58,2 Кбайт (0%)
Заголовок : Full
Язык : English
Default : Нет
Forced : Нет

Текст #6
Идентификатор : 12
Формат : UTF-8
Идентификатор кодека : S_TEXT/UTF8
Идентификатор кодека/Информация : UTF-8 Plain Text
Продолжительность : 2 ч. 8 м.
Битрейт : 68 бит/сек
ElementCount : 1929
Размер потока : 64,0 Кбайт (0%)
Заголовок : SDH
Язык : English
Default : Нет
Forced : Нет

Меню
00:00:00.000 : en:00:00:00.000
00:09:35.033 : en:00:09:35.033
00:16:06.716 : en:00:16:06.716
00:25:18.475 : en:00:25:18.475
00:35:26.499 : en:00:35:26.499
00:41:57.014 : en:00:41:57.014
00:49:50.029 : en:00:49:50.029
00:57:09.509 : en:00:57:09.509
01:04:50.637 : en:01:04:50.637
01:15:57.219 : en:01:15:57.219
01:22:49.089 : en:01:22:49.089
01:29:25.193 : en:01:29:25.193
01:36:43.256 : en:01:36:43.256
01:44:47.364 : en:01:44:47.364
01:52:17.397 : en:01:52:17.397
01:57:45.433 : en:01:57:45.433

pb.wtf



Скачать Человек-паук: Вдали от дома через торрент https://img15.lostpic.net/2019/09/20/0447715ccd39af6115c5292e7ff72a2e.jpg Скачать фильм Человек-паук: Вдали от дома через торрент бесплантно в хорошем качестве Описание: Питер Паркер вместе с друзьями отправляется на летние каникулы в Европу. Однако отдохнуть приятелям вряд ли удастся - Питеру ... 10 10 12
Торрент: Зарегистрирован [2019-10-23 12:00] · скачан: 59 раз
Статус: √ проверено
Размер: 11.35 GB
Как cкачать? Как скачать Человек-паук: Вдали от дома через торрент | qTorrent

% Раздел Тема Автор DL S | L
Фильмы 2019-2020 [DVDrip, WEB-DLRip, HDrip] (DUB, MVO) [ 795 MB ] Человек-паук: Вдали от дома / Spider-Man: Far from Home [2019 HDRip] DUB [] bober100 Скачать
6 | 0
Фильмы (Blu-ray, BD-Remux, HDDVD) [ 42.96 GB ] Человек-паук: Вдали от дома / Spider-Man: Far from Home [2019 Blu-ray EUR 1080p] DUB [] bober100 Скачать
1 | 0
Фильмы 2019-2020 [DVDrip, WEB-DLRip, HDrip] (DUB, MVO) [ 1.46 GB ] Человек-паук: Вдали от дома / Spider-Man: Far from Home [2019 BDRip] DUB [ BD EUR] bober100 Скачать
6 | 0
Ultra HD (UHD: 2K, 4K, 8K) — видео сверхвысокой чёткости [ 70.77 GB ] Человек-паук: Вдали от дома / Spider-Man: Far from Home [2019 UHD Blu-ray EUR 2160p] [Dolby Vision] DUB [] bober100 Скачать
2 | 1
Фильмы 2019-2020 [DVDrip, WEB-DLRip, HDrip] (DUB, MVO) [ 2.64 GB ] Человек-паук: Вдали от дома / Spider-Man: Far from Home [2019 BDRip-AVC] DUB [] +MVO [HDrezka Studio] bober100 Скачать
4 | 0
Ultra HD (UHD: 2K, 4K, 8K) — видео сверхвысокой чёткости [ 51.75 GB ] Человек-паук: Вдали от дома / Spider-Man: Far from Home [2019 UHD BDRemux 2160p] [Dolby Vision TV] DUB bober100 Скачать
3 | 0
Фильмы [HD 720p, 1080p] (Хороший звук DUB, MVO) [ 8.25 GB ] Человек-паук: Вдали от дома / Spider-Man: Far from Home [2019 BDRip 1080p] DUB [] +MVO [HDrezka Studio] bober100 Скачать
13 | 0

28-11-2019 20:33  

Отключить всю рекламу на сайте

    Дорогой пользователь! Огромная просьба, поблагодарите релизера, оцените раздачу и оставьте свои комментарий, если Вы скачали Человек-паук: Вдали от дома через торрент бесплатно! Внесите свою лепту в развитие PiratBit!
    Комментировать посты могут только пользователи прошедшие не сложную регистрацию
    Показать сообщения:    

    Человек-паук: Вдали от дома через торрент
    Скачать бесплатно Человек-паук: Вдали от дома
    Человек-паук: Вдали от дома скачать торрент
    Человек-паук: Вдали от дома смотреть онлайн
    Cкачать фильм Человек-паук: Вдали от дома бесплатно
    Человек-паук: Вдали от дома скачать торрент в хорошем качестве
    Человек-паук: Вдали от дома смотреть онлайн бесплатно в хорошем качестве


    Вы не можете начинать темы
    Вы не можете отвечать на сообщения
    Вы не можете редактировать свои сообщения
    Вы не можете удалять свои сообщения
    Вы не можете голосовать в опросах
    Вы не можете прикреплять файлы к сообщениям
    Вы можете скачивать файлы