новый адрес пиратбит piratbit
Мега распродажа FORZA HORIZON 4 ULTIMATE+ВСЕ DLC+ОНЛАЙН всего за 499р. 349 руб. (супер цена). Внимание количество ограничено!!!

iTunes

1+1

iTunes

мы

iTunes

1

iTunes

Чернобыль

iTunes

Ральф против интернета

Лицензия

ПШазам

Лицензия

Игра престолов

Лицензия

30
pack

ВАЖНО

!!Акция!!

Alien_RageХит недели

RePack

Resident Evil 21

ИГРА 18+

pack

RePack

Metro:Exodus

!!Акция!!

Alien_Rage

RePack

fifa19

RePack

Assassins Creed: Odyssey

RePack

NEED FOR SPEED™ PAYBACK

3 сезон

9 сезон

Бесстыжие 9 сезон

Все сериалы

все сериалы на PB.wtf

RePack

FAR CRY 5
Ребята, катастрофически не хватает 1900р. для оплаты серверов за Октябрь (всвязи с блокировками трафик упал в 3 раза), 1-2р., выручайте.
  

Проклятие Аннабель 3 / Annabelle Comes Home (Гари Доберман) [2019, Ужасы, триллер, детектив, BDRip-AVC] DUB [iTunes] pb.wtf

Проклятие Аннабель 3 через торрент pb.wtf

Раздают: 9 [ 0.1 KB/s ]
Размер: 1.62 GB | Добавлен: 1 мес. 18 д. назад | Торрент скачан:172 раза
Скачать  

27-09-2019 01:03 Проклятие Аннабель 3 Скачать торрент  

Проклятие Аннабель 3 / Annabelle Comes Home«Кукла или кукловод?»
Год выпуска: 2019
Страна: США
Жанр: Ужасы, триллер, детектив
Продолжительность: 01:46:05
Перевод: Дублированный | iTunes
Субтитры: Русские (форс., полные)

Режиссер: Гари Доберман

rating

В ролях: Маккенна Грейс, Мэдисон Айсмен, Кэти Сариф, Вера Фармига, Патрик Уилсон, Майкл Чимино, Самара Ли, Кензи Каплан, Шаде Катарина, Майкл Патрик МакГилл

Описание: Преисполнившись решимости удержать Аннабель от дальнейших разрушений и хаоса, демонологи Эд и Лоррейн Уоррены приносят одержимую куклу в запертую комнату артефактов в своем доме, поместив ее под «надежное» освященное стекло и заручившись благословением священника. Однако беспросветная ночь ужаса ждет обитателей дома, когда Аннабель пробуждает злых духов комнаты и их новой мишенью становится десятилетняя дочь Уорренов Джуди и ее друзья.

Качество: BDRip-AVC
Формат: MKV

Видео: 1024x428 (2.40:1), 23,976 fps, x264 ~1 798 kbps avg, 0.171 bit/pixel
Аудио: 48 kHz, AC3 Dolby Digital, 3/2 (L,C,R,l,r) + LFE ch, ~384.00 kbps avg | RUS (iTunes)
скриншот  скриншот  скриншот  скриншот  скриншот  

Общее
Уникальный идентификатор : 266631014258286489768302870086896496181 (0xC89743F448DC797B914EEA9AE02EAE35)
Полное имя : F:\OlLanDGroup\Annabelle.Comes.Home.2019.BDRip(AVC).OllanDGroup.mkv
Формат : Matroska
Версия формата : Version 4 / Version 2
Размер файла : 1,62 Гбайт
Продолжительность : 1 ч. 46 м.
Общий поток : 2184 Кбит/сек
Название фильма : Annabelle Comes Home 2019 #TorpedoUK#
Дата кодирования : UTC 2019-09-27 00:38:00
Программа кодирования : mkvmerge v29.0.0 ('Like It Or Not') 64-bit
Библиотека кодирования : libebml v1.3.6 + libmatroska v1.4.9

Видео
Идентификатор : 1
Формат : AVC
Формат/Информация : Advanced Video Codec
Профиль формата : High@L4.1
Параметр CABAC формата : Да
Параметр ReFrames формата : 10 кадров
Идентификатор кодека : V_MPEG4/ISO/AVC
Продолжительность : 1 ч. 46 м.
Битрейт : 1798 Кбит/сек
Ширина : 1024 пикселя
Высота : 428 пикселей
Соотношение сторон : 2,40:1
Режим частоты кадров : Постоянный
Частота кадров : 23,976 (24000/1001) кадра/сек
Цветовое пространство : YUV
Субдискретизация насыщенности : 4:2:0
Битовая глубина : 8 бит
Тип развёртки : Прогрессивная
Бит/(Пиксели*Кадры) : 0.171
Размер потока : 1,33 Гбайт (82%)
Библиотека кодирования : x264 core 146 r2538 121396c
Настройки программы : cabac=1 / ref=10 / deblock=1:-3:-3 / analyse=0x3:0x113 / me=umh / subme=11 / psy=1 / psy_rd=1.00:0.03 / mixed_ref=1 / me_range=48 / chroma_me=1 / trellis=2 / 8x8dct=1 / cqm=0 / deadzone=21,11 / fast_pskip=1 / chroma_qp_offset=-6 / threads=6 / lookahead_threads=1 / sliced_threads=0 / nr=0 / decimate=1 / interlaced=0 / bluray_compat=0 / constrained_intra=0 / bframes=11 / b_pyramid=2 / b_adapt=2 / b_bias=0 / direct=3 / weightb=1 / open_gop=0 / weightp=2 / keyint=240 / keyint_min=23 / scenecut=40 / intra_refresh=0 / rc_lookahead=40 / rc=2pass / mbtree=0 / bitrate=1798 / ratetol=1.0 / qcomp=0.60 / qpmin=0 / qpmax=69 / qpstep=4 / cplxblur=20.0 / qblur=0.5 / vbv_maxrate=50000 / vbv_bufsize=62500 / nal_hrd=none / filler=0 / ip_ratio=1.40 / pb_ratio=1.30 / aq=1:1.00
Язык : English
Default : Да
Forced : Нет

Аудио
Идентификатор : 2
Формат : AC-3
Формат/Информация : Audio Coding 3
Расширение режима : CM (complete main)
Параметр Endianness формата : Big
Идентификатор кодека : A_AC3
Продолжительность : 1 ч. 46 м.
Вид битрейта : Постоянный
Битрейт : 384 Кбит/сек
Каналы : 6 каналов
Расположение каналов : Front: L C R, Side: L R, LFE
Частота : 48,0 КГц
Частота кадров : 31,250 кадров/сек (1536 spf)
Битовая глубина : 16 бит
Метод сжатия : С потерями
Размер потока : 291 Мбайт (18%)
Заголовок : DUB [iTunes]
Язык : Russian
Default : Да
Forced : Нет

Текст #1
Идентификатор : 3
Формат : UTF-8
Идентификатор кодека : S_TEXT/UTF8
Идентификатор кодека/Информация : UTF-8 Plain Text
Продолжительность : 1 ч. 37 м.
Битрейт : 2 бит/сек
Count of elements : 36
Размер потока : 1,87 Кбайт (0%)
Заголовок : Forced
Язык : Russian
Default : Да
Forced : Нет

Текст #2
Идентификатор : 4
Формат : UTF-8
Идентификатор кодека : S_TEXT/UTF8
Идентификатор кодека/Информация : UTF-8 Plain Text
Продолжительность : 1 ч. 45 м.
Битрейт : 51 бит/сек
Count of elements : 900
Размер потока : 39,9 Кбайт (0%)
Заголовок : Full
Язык : Russian
Default : Нет
Forced : Нет

Меню
00:00:00.000 : en:1
00:07:58.000 : en:2
00:15:34.000 : en:3
00:24:02.000 : en:4
00:32:57.000 : en:5
00:43:00.000 : en:6
00:52:29.000 : en:7
01:02:07.000 : en:8
01:06:14.000 : en:9
01:15:05.000 : en:10
01:21:45.000 : en:11
01:30:22.000 : en:12
01:39:58.000 : en:13

pb.wtf



Скачать Проклятие Аннабель 3 через торрент https://i90.fastpic.ru/big/2019/0927/f7/dd3cf7508151112eab30e4ad167fb1f7.jpg Скачать фильм Проклятие Аннабель 3 через торрент бесплантно в хорошем качестве Описание: Преисполнившись решимости удержать Аннабель от дальнейших разрушений и хаоса, демонологи Эд и Лоррейн Уоррены приносят одержимую ... 9.8 10 4
Торрент: Зарегистрирован [2019-09-27 01:03] · скачан: 172 раз
Статус: √ проверено
Размер: 1.62 GB
Как cкачать? Как скачать Проклятие Аннабель 3 через торрент | qTorrent

% Раздел Тема Автор DL S | L
Фильмы [HD 720p, 1080p] (Хороший звук DUB, MVO) [ 4.93 GB ] Проклятие Аннабель 3 / Annabelle Comes Home [2019 BDRip 720p] DUB [] MVO [HDRezka Studio] - ExKinoRay Enigma2010 Скачать
157 | 14
Фильмы 2019 [DVDrip, WEB-DLRip, HDrip] (DUB, MVO) [ 747 MB ] Проклятие Аннабель 3 / Annabelle Comes Home [2019 HDRip] DUB [] bober100 Скачать
7 | 0
Фильмы [HD 720p, 1080p] (Хороший звук DUB, MVO) [ 12.47 GB ] Проклятие Аннабель 3 / Annabelle Comes Home [2019 BDRip 1080p] DUB [] +MVO [HDRezka Studio] bober100 Скачать
4 | 0
Фильмы 2019 [DVDrip, WEB-DLRip, HDrip] (DUB, MVO) [ 2.2 GB ] Проклятие Аннабель 3 / Annabelle Comes Home [2019 BDRip-AVC] DUB [] MVO - ExKinoRay Enigma2010 Скачать
108 | 8
Фильмы (Blu-ray, BD-Remux, HDDVD) [ 37.29 GB ] Проклятие Аннабель 3 / Annabelle Comes Home [2019 Blu-Ray EUR 1080p] DUB [] bober100 Скачать
1 | 0
Фильмы 2019 [DVDrip, WEB-DLRip, HDrip] (DUB, MVO) [ 1.46 GB ] Проклятие Аннабель 3 / Annabelle Comes Home [2019 BDRip] - [] Twi7ter Скачать
39 | 3
Фильмы 2019 [DVDrip, WEB-DLRip, HDrip] (DUB, MVO) [ 1.46 GB ] Проклятие Аннабель 3 / Annabelle Comes Home [2019 BDRip] DUB [] bober100 Скачать
4 | 0


>> Регистрируемся здесь <<






Отзывы и комментарии о схеме читаем и пишем здесь: ---> Отзывы и комментарии о схеме

Новые благодарочки в телеграм довольных пользователей:
скриншот   скриншот   скриншот   скриншот   скриншот
    Дорогой пользователь! Огромная просьба, поблагодарите релизера, оцените раздачу и оставьте свои комментарий, если Вы скачали Проклятие Аннабель 3 через торрент бесплатно! Внесите свою лепту в развитие PiratBit!
    Комментировать посты могут только пользователи прошедшие не сложную регистрацию
    Показать сообщения:    

    Проклятие Аннабель 3 через торрент
    Скачать бесплатно Проклятие Аннабель 3
    Проклятие Аннабель 3 скачать торрент
    Проклятие Аннабель 3 смотреть онлайн
    Cкачать фильм Проклятие Аннабель 3 бесплатно
    Проклятие Аннабель 3 скачать торрент в хорошем качестве
    Проклятие Аннабель 3 смотреть онлайн бесплатно в хорошем качестве


    Вы не можете начинать темы
    Вы не можете отвечать на сообщения
    Вы не можете редактировать свои сообщения
    Вы не можете удалять свои сообщения
    Вы не можете голосовать в опросах
    Вы не можете прикреплять файлы к сообщениям
    Вы можете скачивать файлы