Anonymous, доброй ночи, присоединяйтесь к нам в Telegram!, здесь всегда актуальный адрес сайта, оперативная поддержка и многое другое!

>

5.6

iTunes

7.4

iTunes

7.9

MVO

1

7.7

1 сезон

6.8

iTunes

7.3

1 сезон

13

6.7

1 сезон

8.3

RePack

30

PREMIUM

pack

9.9

Лицензия

ВАЖНО

ИГРА 18+

pack

7.3

RePack

MK11

7.7

RePack

jed

7.8

RePack

fifa19

8.5

RePack

RDR2

RePack

NEED FOR SPEED™ PAYBACK

4 сезон

9 сезон

Бесстыжие 9 сезон

Все сериалы

все сериалы на PB.wtf

RePack

FAR CRY 5

Anonymous, доброй ночи, мы катастрофически не успеваем собрать деньги на оплату серверов, помогите нам пожалуйста 5,10,15р., для нас важна любая помощь . В качестве благодарности мы отключим Вам всю рекламу на сайте (укажите свой ник в строку Ваше имя)!

×
  
Magnet ссылка

Год культуры / Сезон: 1 / Серии: 1-20 из 20 (Тито Калатозишвили) [2018, Комедия, WEB-DL 720p] pb.wtf

Год культуры через торрент pb.wtf

Размер: 10.34 GB | Добавлен: 2 года назад | Торрент скачан:184 раза
Смотреть онлайн Год культуры | Скачать    Ребята, помогите собрать деньги на оплату серверов!!!

27-09-2019 02:21 Год культуры Скачать торрент  

Год культуры Год выпуска: 2018
Производство: Comedy Club Production
Жанр: Комедия
Продолжительность: ~00:50:00 серия

Режиссёр: Тито Калатозишвили

В ролях: Фёдор Бондарчук, Мария Ахметзянова, Риналь Мухаметов, Ольга Медынич, Александр Обласов, Александр Яценко, Валерия Шкирандо, Иван Мартынов, Мария Карпова, Александр Лыков

Описание: Нерадивый чиновник Виктор Михайлович Сычёв отправляется в ссылку на кафедру словесности в региональный вуз. Там ему придется сменить уютное кожаное кресло и просторный кабинет на шаткую табуретку и пыльную аудиторию. Что может быть лучше для служителя Министерства образования, чем полное погружение в это самое образование? Сериал покажет, чем может обернуться для высокопоставленного чиновника халатное отношение к собственным обязанностям.

rating


Качество: WEB-DL 720p
Формат: MKV
Видео кодек: H.264
Аудио кодек: AC3

Видео: AVC, 1280x720 (16:9), 25.000 fps, 2600 Kbps (0.112 bit/pixel)
Аудио: AC3, 48000Hz stereo, 192 Kbps, 2 ch


Релиз группы:
General
Complete name : God.kultury.(2018).WEB-DL.720p.ExKinoRay\God.kultury.e01.(2018).WEB-DL.720p.ExKinoRay.mkv
Format : Matroska
Format version : Version 2
File size : 883 MiB
Duration : 44 min 24 s
Overall bit rate mode : Constant
Overall bit rate : 2 781 kb/s
Encoded date : UTC 2018-11-21 15:28:33
Writing application : mkvmerge v5.8.0 ('No Sleep / Pillow') built on Sep 2 2012 15:37:04
Writing library : libebml v1.2.3 + libmatroska v1.3.0

Video
ID : 1
Format : AVC
Format/Info : Advanced Video Codec
Format profile : Baseline@L4
Format settings, CABAC : No
Format settings, ReFrames : 4 frames
Format settings, GOP : M=1, N=50
Codec ID : V_MPEG4/ISO/AVC
Duration : 44 min 24 s
Bit rate mode : Constant
Bit rate : 2 600 kb/s
Width : 1 280 pixels
Height : 720 pixels
Display aspect ratio : 16:9
Frame rate mode : Constant
Frame rate : 25.000 FPS
Standard : PAL
Color space : YUV
Chroma subsampling : 4:2:0
Bit depth : 8 bits
Scan type : Progressive
Bits/(Pixel*Frame) : 0.113
Stream size : 805 MiB (91%)
Language : Russian
Default : Yes
Forced : No
Color range : Limited
Color primaries : BT.709
Transfer characteristics : BT.709
Matrix coefficients : BT.709

Audio
ID : 2
Format : AC-3
Format/Info : Audio Coding 3
Mode extension : CM (complete main)
Format settings, Endianness : Big
Codec ID : A_AC3
Duration : 44 min 24 s
Bit rate mode : Constant
Bit rate : 192 kb/s
Channel(s) : 2 channels
Channel positions : Front: L R
Sampling rate : 48.0 kHz
Frame rate : 31.250 FPS (1536 spf)
Bit depth : 16 bits
Compression mode : Lossy
Stream size : 61.0 MiB (7%)
Language : Russian
Default : Yes
Forced : No
pb.wtf



Скачать Год культуры через торрент http://img11.lostpic.net/2018/11/21/c3e03ecda445daafff6acfc7e039b079.jpg Скачать, смотреть онлайн Год культуры бесплантно в хорошем качестве Описание: Нерадивый чиновник Виктор Михайлович Сычёв отправляется в ссылку на кафедру словесности в региональный вуз. Там ему придется ... 10 10 7
Торрент: Зарегистрирован [2019-09-27 02:21] · скачан: 184 раз
Статус: √ проверено
Размер: 10.34 GB
Как cкачать? Как скачать Год культуры через торрент | UTorrent

% Раздел Тема Автор DL S | L
Наши сериалы [ 6.89 GB ] Год культуры / Сезон: 1 / Серии: 1-20 из 20 [2018 WEBRip] bober100 Скачать
2 | 0
TNT serials [ 6.66 GB ] Год культуры / Сезон: 1 / Серии: 1-20 из 20 [2018 WEBRip-AVC] bober100 Скачать
1 | 0

28-11-2019 20:33  

Отключить всю рекламу на сайте

    Дорогой пользователь! Огромная просьба, поблагодарите релизера, оцените раздачу и оставьте свои комментарий, если Вы скачали Год культуры через торрент бесплатно!
    Комментировать посты могут только пользователи прошедшие не сложную регистрацию
    Показать сообщения:    

    Год культуры через торрент
    Скачать бесплатно Год культуры
    Год культуры скачать торрент
    Год культуры смотреть онлайн
    Cкачать фильм Год культуры бесплатно
    Год культуры скачать торрент в хорошем качестве
    Год культуры смотреть онлайн бесплатно в хорошем качестве


    Вы не можете начинать темы
    Вы не можете отвечать на сообщения
    Вы не можете редактировать свои сообщения
    Вы не можете удалять свои сообщения
    Вы не можете голосовать в опросах
    Вы не можете прикреплять файлы к сообщениям
    Вы можете скачивать файлы