новый адрес
Ссылка на приватное зеркало всего за 1$. Внимание количество ограничено!!!

iTunes

1+1

iTunes

мы

iTunes

1

iTunes

Чернобыль

iTunes

Ральф против интернета

Лицензия

ПШазам

Лицензия

Оно 2

Лицензия

30
pack

Вам бонус

ВАЖНО

!!Акция!!

Alien_RageХит недели

RePack

Resident Evil 21

ИГРА 18+

pack

RePack

jed

!!Акция!!

Alien_Rage

RePack

fifa19

RePack

Assassins Creed: Odyssey

RePack

NEED FOR SPEED™ PAYBACK

3 сезон

9 сезон

Бесстыжие 9 сезон

Все сериалы

все сериалы на PB.wtf

RePack

FAR CRY 5
Ребята, катастрофически не хватает 1900р. для оплаты серверов за Октябрь (всвязи с блокировками трафик упал в 3 раза), 1-2р., выручайте.
  

Форсаж: Хоббс и Шоу / Fast & Furious Presents: Hobbs & Shaw (Дэвид Литч) [2019, боевик, приключения, WEB-DLRip-AVC] [Локализованная версия] DUB [iTunes] - ExKinoRay pb.wtf

Форсаж: Хоббс и Шоу через торрент pb.wtf

Раздают: 157 [ 868 KB/s ] Качают: 4 [ 17 KB/s ]
Размер: 2.21 GB | Добавлен: 2 мес. 8 д. назад | Торрент скачан:1721 раз
Скачать  

27-09-2019 04:18 Форсаж: Хоббс и Шоу Скачать торрент  

Название: Форсаж: Хоббс и Шоу
Оригинальное название: Fast & Furious Presents: Hobbs & Shaw
Год выпуска: 2019
Жанр: Боевик, приключения
Режиссер: Дэвид Литч
В ролях: Дуэйн Джонсон, Джейсон Стэйтем, Идрис Эльба, Ванесса Кирби, Хелен Миррен, Эйса Гонсалес, Эдди Марсан, Элиана Суа, Клифф Кёртис, Лори Пеленис Туисано

Описание: Люк Хоббс — американский элитный спецагент, он любит удобную спортивную одежду, большие пикапы и здоровое питание. Декард Шоу — британский пижон, бывший сотрудник разведки, предпочитает дорогие костюмы, спортивные авто и длинноногих красоток.
Эти двое ненавидят друг друга. Но если кто-то угрожает их семьям, они готовы пойти на все. Даже на работу в команде.

rating

Страна: Великобритания
Студия: США, Universal Pictures
Продолжительность: 02:15:51
Перевод: Дублированный

Формат: MKV
Качество: WEB-DLRip-AVC
Видео: MPEG-4 AVC, 1024x426 (2.40:1), 23.976 fps, 1943 Kbps, 0.186 bit/pixel
Аудио: 48 kHz, AC3, 5.1, 384 Kbps | RUS |
Субтитры: Русские (форс.)
General
Unique ID : 206330938974629998664693379517866694792 (0x9B39E4B4B6CBD06FAFA336054519D888)
Complete name : F:\Fast.and.Furious.Presents.Hobbs.and.Shaw.2019.iTunes.AVC.ExKinoRay.mkv
Format : Matroska
Format version : Version 2
File size : 2.21 GiB
Duration : 2 h 15 min
Overall bit rate : 2 328 kb/s
Movie name : Fast and Furious Presents Hobbs and Shaw 2019 from ExKinoRay
Encoded date : UTC 2019-09-27 20:36:07
Writing application : mkvmerge v5.6.0 ('Kenya Kane') built on May 27 2012 16:44:04
Writing library : libebml v1.2.3 + libmatroska v1.3.0

Video
ID : 1
Format : AVC
Format/Info : Advanced Video Codec
Format profile : High@L4.1
Format settings, CABAC : Yes
Format settings, ReFrames : 11 frames
Codec ID : V_MPEG4/ISO/AVC
Duration : 2 h 15 min
Bit rate : 1 943 kb/s
Width : 1 024 pixels
Height : 426 pixels
Display aspect ratio : 2.40:1
Frame rate mode : Constant
Frame rate : 23.976 (23976/1000) FPS
Color space : YUV
Chroma subsampling : 4:2:0
Bit depth : 8 bits
Scan type : Progressive
Bits/(Pixel*Frame) : 0.186
Stream size : 1.80 GiB (82%)
Title : Enigma
Writing library : x264 core 152 r2851 ba24899
Encoding settings : cabac=1 / ref=11 / deblock=1:-3:-2 / analyse=0x3:0x113 / me=umh / subme=10 / psy=1 / psy_rd=1.05:0.10 / mixed_ref=1 / me_range=32 / chroma_me=1 / trellis=2 / 8x8dct=1 / cqm=0 / deadzone=21,11 / fast_pskip=0 / chroma_qp_offset=-3 / threads=12 / lookahead_threads=3 / sliced_threads=0 / nr=0 / decimate=0 / interlaced=0 / bluray_compat=0 / constrained_intra=0 / bframes=10 / b_pyramid=2 / b_adapt=2 / b_bias=0 / direct=3 / weightb=1 / open_gop=0 / weightp=2 / keyint=240 / keyint_min=23 / scenecut=40 / intra_refresh=0 / rc=2pass / mbtree=0 / bitrate=1943 / ratetol=1.0 / qcomp=0.60 / qpmin=0 / qpmax=51 / qpstep=4 / cplxblur=20.0 / qblur=0.5 / ip_ratio=1.40 / pb_ratio=1.30 / aq=2:0.90
Language : English
Default : Yes
Forced : No
Color range : Limited
Color primaries : BT.709
Transfer characteristics : BT.709
Matrix coefficients : BT.709

Audio
ID : 2
Format : AC-3
Format/Info : Audio Coding 3
Mode extension : CM (complete main)
Format settings, Endianness : Big
Codec ID : A_AC3
Duration : 2 h 15 min
Bit rate mode : Constant
Bit rate : 384 kb/s
Channel(s) : 6 channels
Channel positions : Front: L C R, Side: L R, LFE
Sampling rate : 48.0 kHz
Frame rate : 31.250 FPS (1536 spf)
Compression mode : Lossy
Stream size : 373 MiB (16%)
Title : iTunes
Language : Russian
Default : Yes
Forced : No

Menu
00:00:00.000 : en:1
00:04:56.336 : en:2
00:13:41.778 : en:3
00:19:19.740 : en:4
00:26:44.267 : en:5
00:35:39.801 : en:6
00:40:11.531 : en:7
00:46:20.315 : en:8
00:51:32.501 : en:9
00:57:50.086 : en:10
01:01:51.535 : en:11
01:08:43.445 : en:12
01:14:21.116 : en:13
01:19:46.357 : en:14
01:24:57.542 : en:15
01:32:56.478 : en:16
01:38:47.203 : en:17
01:46:31.249 : en:18
01:53:27.872 : en:19
02:01:13.087 : en:20



Релиз от:

Автор релиза: pb.wtf



Скачать Форсаж: Хоббс и Шоу через торрент https://d.radikal.ru/d25/1909/77/25ef25ee68f4.png Скачать фильм Форсаж: Хоббс и Шоу через торрент бесплантно в хорошем качестве Описание: Люк Хоббс — американский элитный спецагент, он любит удобную спортивную одежду, большие пикапы и здоровое питание. Декард Шоу — ... 10 10 45
Info! Золотая раздача, скачанное не засчитывается.
Торрент: Зарегистрирован [2019-09-27 20:59] · скачан: 1 721 раз
Статус: √ проверено
Размер: 2.21 GB
Как cкачать? Как скачать Форсаж: Хоббс и Шоу через торрент | qTorrent

Отключить всю рекламу на сайте

28-09-2019 04:51 Форсаж: Хоббс и Шоу Скачать торрент  

Неплохой зрелищный экшн с сюжетом затертым до дыр, ожидал большего ждем новый Форсаж в Нью Йорке, который выйдет летом 2020 года.pb.wtf



    Дорогой пользователь! Огромная просьба, поблагодарите релизера, оцените раздачу и оставьте свои комментарий, если Вы скачали Форсаж: Хоббс и Шоу через торрент бесплатно! Внесите свою лепту в развитие PiratBit!
    Комментировать посты могут только пользователи прошедшие не сложную регистрацию
    Показать сообщения:    

    Форсаж: Хоббс и Шоу через торрент
    Скачать бесплатно Форсаж: Хоббс и Шоу
    Форсаж: Хоббс и Шоу скачать торрент
    Форсаж: Хоббс и Шоу смотреть онлайн
    Cкачать фильм Форсаж: Хоббс и Шоу бесплатно
    Форсаж: Хоббс и Шоу скачать торрент в хорошем качестве
    Форсаж: Хоббс и Шоу смотреть онлайн бесплатно в хорошем качестве


    Вы не можете начинать темы
    Вы не можете отвечать на сообщения
    Вы не можете редактировать свои сообщения
    Вы не можете удалять свои сообщения
    Вы не можете голосовать в опросах
    Вы не можете прикреплять файлы к сообщениям
    Вы можете скачивать файлы