новый адрес
Мега распродажа FORZA HORIZON 4 ULTIMATE+ВСЕ DLC+ОНЛАЙН всего за 499р. 349 руб. (супер цена). Внимание количество ограничено!!!

iTunes

1+1

iTunes

мы

iTunes

1

iTunes

Чернобыль

iTunes

Ральф против интернета

Лицензия

ПШазам

Лицензия

Игра престолов

Лицензия

30
pack

ВАЖНО

!!Акция!!

Alien_RageХит недели

RePack

Resident Evil 21

ИГРА 18+

pack

RePack

Metro:Exodus

!!Акция!!

Alien_Rage

RePack

fifa19

RePack

Assassins Creed: Odyssey

RePack

NEED FOR SPEED™ PAYBACK

3 сезон

9 сезон

Бесстыжие 9 сезон

Все сериалы

все сериалы на PB.wtf

RePack

FAR CRY 5
Ребята, катастрофически не хватает 1900р. для оплаты серверов за Октябрь (всвязи с блокировками трафик упал в 3 раза), 1-2р., выручайте.
  

Человек, который убил Гитлера и затем снежного человека / The Man Who Killed Hitler and Then The Bigfoot (Роберт Д. Кржиковски) [2018, Фантастика, драма, приключения, военный, BDRip-AVC] DUB [iTunes] +MVO [HDRezka Studio] pb.wtf

Человек, который убил Гитлера и затем снежного человека через торрент pb.wtf

Раздают: 6 [ 0 KB/s ]
Размер: 2.04 GB | Добавлен: 1 мес. 20 д. назад | Торрент скачан:102 раза
Скачать  

27-09-2019 05:30 Человек, который убил Гитлера и затем снежного человека Скачать торрент  

Человек, который убил Гитлера и затем снежного человека
The Man Who Killed Hitler and Then The Bigfoot
«An American myth»
Год выпуска: 2018
Страна: США
Жанр: Фантастика, драма, приключения, военный
Продолжительность: 01:37:40
Перевод:

#1 Дублированный | iTunes
#2 Профессиональный (многоголосый закадровый) | HDRezka Studio

Субтитры: Pусские (полные), английские (полные, SDH)

Режиссер: Роберт Д. Кржиковски

rating

В ролях: Сэм Эллиотт, Эйдан Тернер, Кэйтлин Фицджералд, Рон Ливингстон, Шон Бриджерс, Ларри Миллер, Эллар Колтрейн, Марк Стегер, Ризван Манжи, Анастасия Циканава и др.

Описание: Легендарный американский ветеран по имени Кельвин Барр в годы Второй мировой войны участвовал в боевых действиях и даже убил Адольфа Гитлера. Теперь же герой живёт тихой жизнью, однако страна вновь призывает его в строй. С ним связываются ФБР, чтобы выследить и уничтожить снежного человека, поскольку существо, прячущееся в глубине канадских лесов, является носителем вируса, который может вызвать эпидемию.

Качество: BDRip-AVC
Формат: MKV

Видео: 1024x426 (2.40:1), 23,976 fps, x264 ~1 968 kbps avg, 0.188 bit/pixel
Аудио#1: 48 kHz, AC3 Dolby Digital, 3/2 (L,C,R,l,r) + LFE ch, ~384.00 kbps avg | RUS (iTunes)
Аудио#2: 48 kHz, AC3 Dolby Digital, 2 (L,R) ch, ~192.00 kbps avg | RUS (HDRezka Studio)
Аудио#3: 48 kHz, AC3 Dolby Digital, 3/2 (L,C,R,l,r) + LFE ch, ~448.00 kbps avg | ENG
скриншот  скриншот  скриншот  скриншот  скриншот  

Общее
Уникальный идентификатор : 59478777482585188134585806587860457853 (0x2CBF3223F10E0B97625BF25FFD59997D)
Полное имя : F:OlLanDGroupThe.Man.Who.Killed.Hitler.and.Then.The.Bigfoot.2018.BDRip(AVC).OlLanDGroup.mkv
Формат : Matroska
Версия формата : Version 4 / Version 2
Размер файла : 2,04 Гбайт
Продолжительность : 1 ч. 37 м.
Общий поток : 2991 Кбит/сек
Название фильма : The.Man.Who.Killed.Hitler.and.Then.The.Bigfoot.2018 #TorpedoUK#
Дата кодирования : UTC 2019-09-26 15:32:05
Программа кодирования : mkvmerge v29.0.0 ('Like It Or Not') 64-bit
Библиотека кодирования : libebml v1.3.6 + libmatroska v1.4.9

Видео
Идентификатор : 1
Формат : AVC
Формат/Информация : Advanced Video Codec
Профиль формата : High@L4.1
Параметр CABAC формата : Да
Параметр ReFrames формата : 10 кадров
Идентификатор кодека : V_MPEG4/ISO/AVC
Продолжительность : 1 ч. 37 м.
Битрейт : 1968 Кбит/сек
Ширина : 1024 пикселя
Высота : 426 пикселей
Соотношение сторон : 2,40:1
Режим частоты кадров : Постоянный
Частота кадров : 23,976 (24000/1001) кадра/сек
Цветовое пространство : YUV
Субдискретизация насыщенности : 4:2:0
Битовая глубина : 8 бит
Тип развёртки : Прогрессивная
Бит/(Пиксели*Кадры) : 0.188
Размер потока : 1,34 Гбайт (66%)
Библиотека кодирования : x264 core 146 r2538 121396c
Настройки программы : cabac=1 / ref=10 / deblock=1:-2:-3 / analyse=0x3:0x113 / me=umh / subme=11 / psy=1 / psy_rd=0.96:0.06 / mixed_ref=1 / me_range=48 / chroma_me=1 / trellis=2 / 8x8dct=1 / cqm=0 / deadzone=21,11 / fast_pskip=1 / chroma_qp_offset=-3 / threads=6 / lookahead_threads=1 / sliced_threads=0 / nr=0 / decimate=1 / interlaced=0 / bluray_compat=0 / constrained_intra=0 / bframes=11 / b_pyramid=2 / b_adapt=2 / b_bias=0 / direct=3 / weightb=1 / open_gop=0 / weightp=2 / keyint=240 / keyint_min=23 / scenecut=40 / intra_refresh=0 / rc_lookahead=40 / rc=2pass / mbtree=0 / bitrate=1968 / ratetol=1.0 / qcomp=0.60 / qpmin=0 / qpmax=69 / qpstep=4 / cplxblur=20.0 / qblur=0.5 / vbv_maxrate=50000 / vbv_bufsize=62500 / nal_hrd=none / filler=0 / ip_ratio=1.40 / pb_ratio=1.30 / aq=1:1.00
Язык : English
Default : Да
Forced : Нет

Аудио #1
Идентификатор : 2
Формат : AC-3
Формат/Информация : Audio Coding 3
Расширение режима : CM (complete main)
Параметр Endianness формата : Big
Идентификатор кодека : A_AC3
Продолжительность : 1 ч. 37 м.
Вид битрейта : Постоянный
Битрейт : 384 Кбит/сек
Каналы : 6 каналов
Расположение каналов : Front: L C R, Side: L R, LFE
Частота : 48,0 КГц
Частота кадров : 31,250 кадров/сек (1536 spf)
Битовая глубина : 16 бит
Метод сжатия : С потерями
Размер потока : 268 Мбайт (13%)
Заголовок : DUB [iTunes]
Язык : Russian
Default : Да
Forced : Нет

Аудио #2
Идентификатор : 3
Формат : AC-3
Формат/Информация : Audio Coding 3
Расширение режима : CM (complete main)
Параметр Endianness формата : Big
Идентификатор кодека : A_AC3
Продолжительность : 1 ч. 37 м.
Вид битрейта : Постоянный
Битрейт : 192 Кбит/сек
Каналы : 2 канала
Расположение каналов : Front: L R
Частота : 48,0 КГц
Частота кадров : 31,250 кадров/сек (1536 spf)
Битовая глубина : 16 бит
Метод сжатия : С потерями
Размер потока : 134 Мбайт (6%)
Заголовок : MVO [HDRezka Studio]
Язык : Russian
Default : Нет
Forced : Нет

Аудио #3
Идентификатор : 4
Формат : AC-3
Формат/Информация : Audio Coding 3
Расширение режима : CM (complete main)
Параметр Endianness формата : Big
Идентификатор кодека : A_AC3
Продолжительность : 1 ч. 37 м.
Вид битрейта : Постоянный
Битрейт : 448 Кбит/сек
Каналы : 6 каналов
Расположение каналов : Front: L C R, Side: L R, LFE
Частота : 48,0 КГц
Частота кадров : 31,250 кадров/сек (1536 spf)
Битовая глубина : 16 бит
Метод сжатия : С потерями
Размер потока : 313 Мбайт (15%)
Заголовок : [Original]
Язык : English
Default : Нет
Forced : Нет

Текст #1
Идентификатор : 5
Формат : UTF-8
Идентификатор кодека : S_TEXT/UTF8
Идентификатор кодека/Информация : UTF-8 Plain Text
Продолжительность : 1 ч. 30 м.
Битрейт : 59 бит/сек
Count of elements : 813
Размер потока : 39,1 Кбайт (0%)
Заголовок : Full
Язык : Russian
Default : Нет
Forced : Нет

Текст #2
Идентификатор : 6
Формат : UTF-8
Идентификатор кодека : S_TEXT/UTF8
Идентификатор кодека/Информация : UTF-8 Plain Text
Продолжительность : 1 ч. 30 м.
Битрейт : 35 бит/сек
Count of elements : 856
Размер потока : 23,6 Кбайт (0%)
Заголовок : Full
Язык : English
Default : Нет
Forced : Нет

Текст #3
Идентификатор : 7
Формат : UTF-8
Идентификатор кодека : S_TEXT/UTF8
Идентификатор кодека/Информация : UTF-8 Plain Text
Продолжительность : 1 ч. 30 м.
Битрейт : 44 бит/сек
Count of elements : 1117
Размер потока : 29,4 Кбайт (0%)
Заголовок : SDH
Язык : English
Default : Нет
Forced : Нет

Меню
00:00:00.000 : :Глава 01
00:10:43.601 : :Глава 02
00:19:39.219 : :Глава 03
00:28:28.415 : :Глава 04
00:41:27.485 : :Глава 05
00:58:48.650 : :Глава 06
01:16:12.651 : :Глава 07
01:31:44.707 : :Глава 08

pb.wtf



Скачать Человек, который убил Гитлера и затем снежного человека через торрент https://i110.fastpic.ru/big/2019/0516/69/642879bdc89e533f705752a4a1616269.jpg Скачать фильм Человек, который убил Гитлера и затем снежного человека через торрент бесплантно в хорошем качестве Описание: Легендарный американский ветеран по имени Кельвин Барр в годы Второй мировой войны участвовал в боевых действиях и даже убил ... 10 10 6
Торрент: Зарегистрирован [2019-09-27 05:30] · скачан: 102 раз
Статус: √ проверено
Размер: 2.04 GB
Как cкачать? Как скачать Человек, который убил Гитлера и затем снежного человека через торрент | qTorrent

% Раздел Тема Автор DL S | L
Фильмы [HD 720p, 1080p] (Хороший звук DUB, MVO) [ 6.71 GB ] Человек который убил Гитлера и затем снежного человека / The Man Who Killed Hitler and Then The Bigfoot [2018 военный BDRip 1080p] +MVO [HDRezka Studio] bober100 Скачать
3 | 0
Фильмы [HD 720p, 1080p] (Хороший звук DUB, MVO) [ 3.83 GB ] Человек который убил Гитлера и затем снежного человека / The Man Who Killed Hitler and Then The Bigfoot [2018 военный BDRip 720p] +MVO [HDRezka Studio] bober100 Скачать
1 | 0
Фильмы 2018 [DVDrip, WEB-DLRip, HDrip] (DUB, MVO) [ 1.45 GB ] Человек который убил Гитлера и затем снежного человека / The Man Who Killed Hitler and Then The Bigfoot [2018 военный BDRip] bober100 Скачать
18 | 0
T Фильмы 2018 [DVDrip, WEB-DLRip, HDrip] (DUB, MVO) [ 746 MB ] Человек который убил Гитлера и затем снежного человека / The Man Who Killed Hitler and Then The Bigfoot [2018 WEB-DLRip от OlLanDGroup] [MVO] Skandar2019 Скачать
2 | 0


>> Регистрируемся здесь <<






Отзывы и комментарии о схеме читаем и пишем здесь: ---> Отзывы и комментарии о схеме

Новые благодарочки в телеграм довольных пользователей:
скриншот   скриншот   скриншот   скриншот   скриншот

29-09-2019 03:19 Человек, который убил Гитлера и затем снежного человека Скачать торрент  

название отпад-полный стёб.pb.wtf



30-09-2019 05:53 Человек, который убил Гитлера и затем снежного человека Скачать торрент  

трейлер довольно оргинальный. говорят прорыв в кино. надо посмотреть!pb.wtf



    Дорогой пользователь! Огромная просьба, поблагодарите релизера, оцените раздачу и оставьте свои комментарий, если Вы скачали Человек, который убил Гитлера и затем снежного человека через торрент бесплатно! Внесите свою лепту в развитие PiratBit!
    Комментировать посты могут только пользователи прошедшие не сложную регистрацию
    Показать сообщения:    

    Человек, который убил Гитлера и затем снежного человека через торрент
    Скачать бесплатно Человек, который убил Гитлера и затем снежного человека
    Человек, который убил Гитлера и затем снежного человека скачать торрент
    Человек, который убил Гитлера и затем снежного человека смотреть онлайн
    Cкачать фильм Человек, который убил Гитлера и затем снежного человека бесплатно
    Человек, который убил Гитлера и затем снежного человека скачать торрент в хорошем качестве
    Человек, который убил Гитлера и затем снежного человека смотреть онлайн бесплатно в хорошем качестве


    Вы не можете начинать темы
    Вы не можете отвечать на сообщения
    Вы не можете редактировать свои сообщения
    Вы не можете удалять свои сообщения
    Вы не можете голосовать в опросах
    Вы не можете прикреплять файлы к сообщениям
    Вы можете скачивать файлы