MEGA NEWS Получи личный уникальный адрес сайта и защити себя от блокировок. Внимание количество ограничено!!!

iTunes

1+1

iTunes

мы

iTunes

1

iTunes

Чернобыль

iTunes

Ральф против интернета

Лицензия

ПШазам

Лицензия

Игра престолов

Лицензия

30
pack

ВАЖНО

!!Акция!!

Alien_RageХит недели

RePack

Resident Evil 21

ИГРА 18+

pack

RePack

Metro:Exodus

!!Акция!!

Alien_Rage

RePack

fifa19

RePack

Assassins Creed: Odyssey

RePack

NEED FOR SPEED™ PAYBACK

3 сезон

9 сезон

Бесстыжие 9 сезон

Все сериалы

все сериалы на PB.wtf

RePack

FAR CRY 5
Ребята, катастрофически не хватает 1900р. для оплаты серверов за АВГУСТ (всвязи с блокировками трафик упал в 3 раза), 1-2р., выручайте.
  

Хороший доктор / The Good Doctor / Сезон: 3 / Серии: 1-3 из 18 (Майк Листо) [2019, драма, WEB-DL 1080p] MVO [Lostfilm] pb.wtf

Хороший доктор через торрент pb.wtf

Раздают: 1 [ 0 KB/s ] Качают: 1 [ 0 KB/s ]
Размер: 5.45 GB | Добавлен: 8 д. назад | Торрент скачан:5 раз
Скачать  

27-09-2019 16:57 Хороший доктор Скачать торрент  

Хороший доктор | The Good Doctor
«***»
Производство: США
Год выпуска: 2019
Жанр: драма
Продолжительность: ~ 00:43:00 серия
Премьера (мир): 25 сентября 2017
Премьера (РФ): 29 сентября 2017
Перевод: Профессиональный (многоголосый закадровый) | Lostfilm
Субтитры: Eng (SDH)

Режиссёр: Майк Листо, Майкл Патрик Джэнн, Эллисон Лидди

В ролях: Бо Гарретт, Николас Гонсалес, Хилл Харпер, Фредди Хаймор, Ирен Кэн, Дилан Кингуэлл, Чуку Моду, Роуз Рейнджер, Ричард Шифф, Антония Томас

Описание:
Главный герой истории — страдающий неврозами психолог-криминалист Малкольм Брайт — блестяще разбирается в образе мыслей маньяков. А все потому, что является сыном знаменитого серийного убийцы Хирурга. Малкольм помогает полиции Нью-Йорка раскрывать запутанные преступления. Параллельно с этим мужчина пытается наладить общение со своими непростыми родственниками: склонной к манипулированию матерью, раздражающе нормальной сестрой и отцом-убийцей, стремящимся наладить отношения с сыном.



Качество: WEB-DL 1080р
Формат: MKV

Видео: AVC, 1920 x 1080 (1.778), 23.976 fps, ~5703 kbps
Аудио Rus: AC-3, 48 kHz, 2 ch, 384 kbps |Lostfilm|
Аудио Eng: E-AC-3, 48 kHz, 6 ch, 640 kbps |Original|


Реклама: Отсутствует
Общее
Уникальный идентификатор : 1212582967509691452531269593495177662 (0xE988F4C22C08DD8F83D59BD3AF09BE)
Полное имя : E:\_Сериалы\_Сериалы\Хороший доктор\The.Good.Doctor.S03.1080p.WEB-DL.LostFilm\The.Good.Doctor.S03E01.1080p.WEB-DL.LostFilm.mkv
Формат : Matroska
Версия формата : Version 4
Размер файла : 2,03 Гбайт
Продолжительность : 43 м. 10 с.
Общий поток : 6729 Кбит/сек
Дата кодирования : UTC 2019-09-26 18:55:15
Программа кодирования : mkvmerge v37.0.0 ('Leave It') 64-bit
Библиотека кодирования : libebml v1.3.9 + libmatroska v1.5.2

Видео
Идентификатор : 1
Формат : AVC
Формат/Информация : Advanced Video Codec
Профиль формата : High@L4
Настройки формата : CABAC / 4 Ref Frames
Параметр CABAC формата : Да
Параметр RefFrames формата : 4 кадра
Идентификатор кодека : V_MPEG4/ISO/AVC
Продолжительность : 43 м. 10 с.
Вид битрейта : Постоянный
Битрейт : 5703 Кбит/сек
Номинальный битрейт : 10000 Кбит/сек
Ширина : 1920 пикселей
Высота : 1080 пикселей
Соотношение сторон : 16:9
Режим частоты кадров : Постоянный
Частота кадров : 23,976 (24000/1001) кадра/сек
Цветовое пространство : YUV
Субдискретизация насыщенности : 4:2:0
Битовая глубина : 8 бит
Тип развёртки : Прогрессивная
Бит/(Пиксели*Кадры) : 0.115
Размер потока : 1,72 Гбайт (85%)
Язык : English
Default : Да
Forced : Нет
Цветовой диапазон : Limited
Основные цвета : BT.709
Характеристики трансфера : BT.709
Коэффициенты матрицы : BT.709

Аудио #1
Идентификатор : 2
Формат : AC-3
Формат/Информация : Audio Coding 3
Коммерческое название : Dolby Digital
Идентификатор кодека : A_AC3
Продолжительность : 43 м. 10 с.
Вид битрейта : Постоянный
Битрейт : 384 Кбит/сек
Каналы : 2 канала
ChannelLayout : L R
Частота : 48,0 КГц
Частота кадров : 31,250 кадров/сек (1536 SPF)
Метод сжатия : С потерями
Размер потока : 119 Мбайт (6%)
Язык : Russian
ServiceKind/String : Complete Main
Default : Да
Forced : Нет

Аудио #2
Идентификатор : 3
Формат : E-AC-3
Формат/Информация : Enhanced AC-3
Коммерческое название : Dolby Digital Plus
Идентификатор кодека : A_EAC3
Продолжительность : 43 м. 10 с.
Вид битрейта : Постоянный
Битрейт : 640 Кбит/сек
Каналы : 6 каналов
ChannelLayout : L R C LFE Ls Rs
Частота : 48,0 КГц
Частота кадров : 31,250 кадров/сек (1536 SPF)
Метод сжатия : С потерями
Размер потока : 198 Мбайт (10%)
Язык : English
ServiceKind/String : Complete Main
Default : Нет
Forced : Нет

Текст
Идентификатор : 4
Формат : UTF-8
Идентификатор кодека : S_TEXT/UTF8
Идентификатор кодека/Информация : UTF-8 Plain Text
Продолжительность : 42 м. 34 с.
Битрейт : 79 бит/сек
ElementCount : 860
Размер потока : 24,7 Кбайт (0%)
Заголовок : English [CC](SDH)
Язык : English
Default : Нет
Forced : Нет
Раздача ведётся путём добавления новых серий; при каждом добавлении создаётся новый торрент.
Чтобы начать докачку новой серии, пользователям необходимо сделать следующее:
1. остановить скачивание,
2. удалить старый торрент у себя из клиента (старые серии удалять не надо),
3. скачать новый торрент и запустить его у себя в клиенте вместо старого, при этом указать клиенту путь в старую папку, куда и должно происходить скачивание новых серий.

Ваш клиент при этом должен произвести хеширование (проверку) старой папки (если не производит сам - помогите ему сделать это), и будет докачивать только те серии которых у вас ещё нет. Старые серии при этом не удаляются, а продолжают раздаваться!

Eсли вы уже удалили старые серии, то предотвратить повторную закачку старых серий можно, отжав галочку в соответствующих местах при запуске нового торрента. По возможности, желательно не удалять старые серии как можно дольше, чтобы релизёр не столько продолжал раздавать старые серии, а смог сконцентрироваться на новых.

Совет для тех, кто не хочет ждать перехеширования:
Создайте ещё одну папку рядом с папкой сериала (рядом, а не в ней!!!). Каждую новую серию после удачной загрузки копируйте в новую папку так чтобы ваша основная папка всегда была пуста. Когда ваш новый торрент предложит вам закачать все файлы, выберете только последнюю. Для сидирования же укажите адрес новой папки.

Как закачать отдельный файл из торрента или докачать ранее пропущенные файлы торрента!
1. Открыть торрент
2. Снять галки с тех файлов торрента, которые мы не хотим закачивать. Оставляем только на нужных нам файлах (файле).
3. Нажать О.К.

В клиенте utorrent

Инструкция

1) Открыть торрент


2) Снять галки с тех файлов торрента, которые мы не хотим закачивать:

* либо вручную, снимая с каждого файла галку( скрин №1)
* либо, нажав кнопку "Снять метки (Select None)", сняв сразу со всех файлов(скрин №2)
№1

№2

Оставляем только на нужных нам файлах (файле).

3)Нажать О.К
Приятного просмотра!!!pb.wtf



Скачать Хороший доктор через торрент https://i3.imageban.ru/out/2019/09/27/4b38276f3ae95bd61fdcc4e1b405a27a.png Скачать фильм Хороший доктор через торрент бесплантно в хорошем качестве Описание:Главный герой истории — страдающий неврозами психолог-криминалист Малкольм Брайт — блестяще разбирается в образе мыслей маньяков. ... 10 10 3
Торрент: Зарегистрирован [2019-10-09 21:35] · скачан: 5 раз
Статус: √ проверено
Размер: 5.45 GB
Как cкачать? Как скачать Хороший доктор через торрент | qTorrent



Последний раз редактировалось: bober100 (2019-10-09 21:35), всего редактировалось 2 раз(а)


>> Регистрируемся здесь <<






Отзывы и комментарии о схеме читаем и пишем здесь: ---> Отзывы и комментарии о схеме

Новые благодарочки в телеграм довольных пользователей:
скриншот   скриншот   скриншот   скриншот   скриншот

03-10-2019 15:11 Хороший доктор Скачать торрент  

сериал-отличный! спасибо! ждем новых серий!pb.wtf



    Дорогой пользователь! Огромная просьба, поблагодарите релизера, оцените раздачу и оставьте свои комментарий, если Вы скачали Хороший доктор через торрент бесплатно! Внесите свою лепту в развитие PiratBit!
    Комментировать посты могут только пользователи прошедшие не сложную регистрацию
    Показать сообщения:    

    Хороший доктор через торрент
    Скачать бесплатно Хороший доктор
    Хороший доктор скачать торрент
    Хороший доктор смотреть онлайн
    Cкачать фильм Хороший доктор бесплатно
    Хороший доктор скачать торрент в хорошем качестве
    Хороший доктор смотреть онлайн бесплатно в хорошем качестве


    Вы не можете начинать темы
    Вы не можете отвечать на сообщения
    Вы не можете редактировать свои сообщения
    Вы не можете удалять свои сообщения
    Вы не можете голосовать в опросах
    Вы не можете прикреплять файлы к сообщениям
    Вы можете скачивать файлы