>

7.4

iTunes

7.4

2 сезон

9.4

1 сезон

1

7.4

2 сезон

7.2

iTunes

6.0

MVO

13

6.1

iTunes

8.3

Пиратка

30

ULTIMATE

pack

9.9

Лицензия

ВАЖНО

ИГРА 18+

pack

7.3

RePack

MK11

7.7

RePack

jed

7.8

RePack

fifa19

8.5

RePack

RDR2

RePack

NEED FOR SPEED™ PAYBACK

1 сезон

9 сезон

Бесстыжие 9 сезон

Все сериалы

все сериалы на PB.wtf

RePack

FAR CRY 5

Anonymous, доброй ночи, мы катастрофически не успеваем собрать деньги на оплату серверов, помогите нам пожалуйста 5,10,15р., для нас важна любая помощь . В качестве благодарности мы отключим Вам всю рекламу на сайте (укажите свой ник в строку Ваше имя)!

×
  
Magnet ссылка

Беглянки / Les paumées du petit matin (Жан Роллен) [1981 г., Драма, эротика, триллер, BDRip-AVC, Авторский (одноголосый)] от ExKinoRay pb.wtf

Беглянки через торрент pb.wtf

Размер: 2.91 GB | Добавлен: 2 года 3 мес. назад | Торрент скачан:37 раз
Смотреть онлайн Беглянки | Скачать    Ребята, помогите собрать деньги на оплату серверов!!!

28-09-2019 02:51 Беглянки Скачать торрент  

Беглянки / Les paumées du petit matin
Год выпуска: 1981
Страна: Франция
Жанр: Драма, эротика, триллер
Продолжительность: 01:47:02
Перевод: Авторский (одноголосый)

Режиссер: Жан Роллен

rating

В ролях: Брижит Лаэ, Патрик Перро, Лоранс Дюба, Кристиан Коппе, Жан-Луи Фортюи, Мари-Эйнж Баратье, Паскаль Пуаро, Рэймонд Сориано, Сирил Годен, Натали Перри, Перл ДжунЖан-Луп Филипп, Патрис Черон, Лесли Бланк, Джоэлль Рамон

Описание: Культовый фильм от классика. В одной из ролей - Брижит Лаэ. Две девушки Мири и Мишель бегут из сумасшедшего дома. Мари несколько заторможена и мечтательна, но всегда готова к сексу, Мишель - активна и агрессивна по отношению к мужчинам. Они пристают к бродячему цирку, который дает им кров и пищу. Они вовлекаются в череду опасных и сексуальных приключений и все заканчивается кровавой развязкой.

Доп. информация: Перевод: Авторский (Антон Алексеев)

Качество: BDRip-AVC
Формат: MKV
Видео кодек: H.264
Аудио кодек: AC3
Видео: MPEG-4 AVC, 3500 Кбит/с, 1024x576
Аудио#1: Русский (AC3, 2 ch, 192 Кбит/с, 48 КГц)
Аудио#2: Французский (AC3, 2 ch, 192 Кбит/с, 48 КГц)
Релиз от:
x264 [info]: profile High, level 4.1
x264 [info]: frame I:755 Avg QP:15.71 size: 81063
x264 [info]: frame P:27651 Avg QP:18.28 size: 34830
x264 [info]: frame B:125576 Avg QP:19.89 size: 14225
-----
Общее
Уникальный идентификатор : 213813912885315750514308651174121164122 (0xA0DB0FCDE1832DEE961CFF8CFB87CD5A)
Полное имя : F:\ExRips\Beglianki.1981.BDRip-AVC.ExKinoRay.mkv
Формат : Matroska
Версия формата : Version 2
Размер файла : 2,91 Гбайт
Продолжительность : 1 ч. 47 м.
Общий поток : 3887 Кбит/сек
Дата кодирования : UTC 2019-09-27 13:01:07
Программа кодирования : mkvmerge v7.8.0 ('River Man') 32bit built on Apr 3 2015 12:11:22
Библиотека кодирования : libebml v1.3.1 + libmatroska v1.4.2

Видео
Идентификатор : 1
Формат : AVC
Формат/Информация : Advanced Video Codec
Профиль формата : High@L4.1
Настройки формата : CABAC / 12 Ref Frames
Параметр CABAC формата : Да
Параметр RefFrames формата : 12 кадров
Идентификатор кодека : V_MPEG4/ISO/AVC
Продолжительность : 1 ч. 47 м.
Битрейт : 3500 Кбит/сек
Ширина : 1024 пикселя
Высота : 576 пикселей
Соотношение сторон : 16:9
Режим частоты кадров : Постоянный
Частота кадров : 23,976 (24000/1001) кадра/сек
Цветовое пространство : YUV
Субдискретизация насыщенности : 4:2:0
Битовая глубина : 8 бит
Тип развёртки : Прогрессивная
Бит/(Пиксели*Кадры) : 0.247
Размер потока : 2,56 Гбайт (88%)
Библиотека кодирования : x264 core 152 r2851 ba24899
Настройки программы : cabac=1 / ref=12 / deblock=1:-3:-2 / analyse=0x3:0x113 / me=umh / subme=10 / psy=1 / psy_rd=1.00:0.10 / mixed_ref=1 / me_range=32 / chroma_me=1 / trellis=2 / 8x8dct=1 / cqm=0 / deadzone=21,11 / fast_pskip=0 / chroma_qp_offset=-3 / threads=6 / lookahead_threads=1 / sliced_threads=0 / nr=0 / decimate=0 / interlaced=0 / bluray_compat=0 / constrained_intra=0 / bframes=12 / b_pyramid=2 / b_adapt=2 / b_bias=0 / direct=3 / weightb=1 / open_gop=0 / weightp=2 / keyint=240 / keyint_min=23 / scenecut=40 / intra_refresh=0 / rc=2pass / mbtree=0 / bitrate=3500 / ratetol=1.0 / qcomp=0.60 / qpmin=0 / qpmax=69 / qpstep=4 / cplxblur=20.0 / qblur=0.5 / ip_ratio=1.40 / pb_ratio=1.30 / aq=3:1.00
Язык : English
Default : Да
Forced : Нет
Цветовой диапазон : Limited
Основные цвета : BT.709
Характеристики трансфера : BT.709
Коэффициенты матрицы : BT.709

Аудио #1
Идентификатор : 2
Формат : AC-3
Формат/Информация : Audio Coding 3
Коммерческое название : Dolby Digital
Идентификатор кодека : A_AC3
Продолжительность : 1 ч. 47 м.
Вид битрейта : Постоянный
Битрейт : 192 Кбит/сек
Каналы : 2 канала
Channel layout : L R
Частота : 48,0 КГц
Частота кадров : 31,250 кадров/сек (1536 SPF)
Битовая глубина : 16 бит
Метод сжатия : С потерями
Размер потока : 147 Мбайт (5%)
Заголовок : Антон Алексеев
Язык : Russian
ServiceKind/String : Complete Main
Default : Да
Forced : Нет

Аудио #2
Идентификатор : 3
Формат : AC-3
Формат/Информация : Audio Coding 3
Коммерческое название : Dolby Digital
Идентификатор кодека : A_AC3
Продолжительность : 1 ч. 47 м.
Вид битрейта : Постоянный
Битрейт : 192 Кбит/сек
Каналы : 2 канала
Channel layout : L R
Частота : 48,0 КГц
Частота кадров : 31,250 кадров/сек (1536 SPF)
Битовая глубина : 16 бит
Метод сжатия : С потерями
Размер потока : 147 Мбайт (5%)
Язык : French
ServiceKind/String : Complete Main
Default : Нет
Forced : Нет

Меню
00:00:00.000 : en:Opening Titles
00:10:23.998 : en:Freedom
00:17:18.246 : en:Performance
00:28:58.445 : en:A Place To Hide
00:41:49.465 : en:The Waterfront
00:50:11.008 : en:On Ice
01:06:08.590 : en:Safe Place
01:18:23.198 : en:Mme. Louise
01:28:53.828 : en:House Party
01:39:22.331 : en:The Authorities

pb.wtf



Скачать Беглянки через торрент https://i89.fastpic.ru/big/2019/0914/68/0cca0d3ad276919969f9d767e709df68.jpg Скачать, смотреть онлайн Беглянки бесплантно в хорошем качестве Описание: Культовый фильм от классика. В одной из ролей - Брижит Лаэ. Две девушки Мири и Мишель бегут из сумасшедшего дома. Мари несколько ... 10 10 2
Торрент: Зарегистрирован [2019-09-28 02:51] · скачан: 37 раз
Статус: √ проверено
Размер: 2.91 GB
Как cкачать? Как скачать Беглянки через торрент | UTorrent

28-11-2019 20:33  

Отключить всю рекламу на сайте

28-09-2019 07:37 Беглянки Скачать торрент  

Топик был перенесен из форума Оформление раздач (Кино, Видео и ТВ) в форум Фильмы с авторской озвучкой


bober100pb.wtf



    Дорогой пользователь! Огромная просьба, поблагодарите релизера, оцените раздачу и оставьте свои комментарий, если Вы скачали Беглянки через торрент бесплатно!
    Комментировать посты могут только пользователи прошедшие не сложную регистрацию
    Показать сообщения:    

    Беглянки через торрент
    Скачать бесплатно Беглянки
    Беглянки скачать торрент
    Беглянки смотреть онлайн
    Cкачать фильм Беглянки бесплатно
    Беглянки скачать торрент в хорошем качестве
    Беглянки смотреть онлайн бесплатно в хорошем качестве


    Вы не можете начинать темы
    Вы не можете отвечать на сообщения
    Вы не можете редактировать свои сообщения
    Вы не можете удалять свои сообщения
    Вы не можете голосовать в опросах
    Вы не можете прикреплять файлы к сообщениям
    Вы можете скачивать файлы