новый адрес
Ссылка на приватное зеркало всего за 1$. Внимание количество ограничено!!!

iTunes

1+1

iTunes

мы

WEB-DL

1

iTunes

Чернобыль

iTunes

Ральф против интернета

Лицензия

ПШазам

Лицензия

Оно 2

Лицензия

30
pack

Вам бонус

ВАЖНО

!!Акция!!

Alien_RageХит недели

RePack

Resident Evil 21

ИГРА 18+

pack

RePack

jed

!!Акция!!

Alien_Rage

RePack

fifa19

RePack

Assassins Creed: Odyssey

RePack

NEED FOR SPEED™ PAYBACK

3 сезон

9 сезон

Бесстыжие 9 сезон

Все сериалы

все сериалы на PB.wtf

RePack

FAR CRY 5
Ребята, катастрофически не хватает 1900р. для оплаты серверов за Октябрь (всвязи с блокировками трафик упал в 3 раза), 1-2р., выручайте.
  

В тени Луны / In the Shadow of the Moon (Джим Микл) [2019, Триллер, WEB-DLRip-AVC] DUB [Пифагор] pb.wtf

В тени Луны через торрент pb.wtf

Раздают: 17 [ 10 KB/s ]
Размер: 1.8 GB | Добавлен: 2 мес. 13 д. назад | Торрент скачан:626 раз
Скачать  

28-09-2019 04:54 В тени Луны Скачать торрент  

В тени Луны / In the Shadow of the Moon«Some Crimes Defy Time»
Год выпуска: 2019
Страна: США
Жанр: Триллер
Продолжительность: 01:55:32
Перевод: Дублированный | Пифагор по заказу Netflix
Субтитры: Русские (форс., полные)

Режиссер: Джим Микл

rating

В ролях: Бойд Холбрук, Майкл С. Холл, Боким Вудбайн, Клеопатра Коулмэн, Сара Дагдэйл, Руди Дхармалингхам, Габриэль Грэхэм, Джулия Ноуп, Райан Аллен, Билли Отис

Описание: Полицейский из Филадельфии Томас Локхарт хочет дослужиться до звания детектива. Для этого он решает лично найти опасного серийного убийцу, на чьём счету несколько загадочных убийств. Преступницей оказывается молодая женщина, которая погибает под колёсами поезда во время потасовки с Локхартом. Несмотря на это, через девять лет она снова даёт о себе знать, и теперь Локхарт должен разобраться, кто она такая и как связаны их судьбы.

Качество: WEB-DLRip-AVC
Формат: MKV

Видео: 1024x428 (2.40:1), 24,000 fps, x264 ~1 783 kbps avg, 0.170 bit/pixel
Аудио: 48 kHz, AC3 Dolby Digital, 3/2 (L,C,R,l,r) + LFE ch, ~448.00 kbps avg | RUS (Пифагор)
скриншот  скриншот  скриншот  скриншот  

Общее
Уникальный идентификатор : 136504321331530461255751969172940953676 (0x66B1C6A7DFEEB07443A393E1B7EC984C)
Полное имя : F:OlLanDGroupIn.the.Shadow.of.the.Moon.2019.WEB-DLRip(AVC).OlLanDGroup.mkv
Формат : Matroska
Версия формата : Version 4 / Version 2
Размер файла : 1,80 Гбайт
Продолжительность : 1 ч. 55 м.
Общий поток : 2229 Кбит/сек
Название фильма : In.the.Shadow.of.the.Moon.2019 #TorpedoUK#
Дата кодирования : UTC 2019-09-28 02:42:44
Программа кодирования : mkvmerge v29.0.0 ('Like It Or Not') 64-bit
Библиотека кодирования : libebml v1.3.6 + libmatroska v1.4.9

Видео
Идентификатор : 1
Формат : AVC
Формат/Информация : Advanced Video Codec
Профиль формата : High@L4.1
Параметр CABAC формата : Да
Параметр ReFrames формата : 10 кадров
Идентификатор кодека : V_MPEG4/ISO/AVC
Продолжительность : 1 ч. 55 м.
Битрейт : 1783 Кбит/сек
Ширина : 1024 пикселя
Высота : 428 пикселей
Соотношение сторон : 2,40:1
Режим частоты кадров : Постоянный
Частота кадров : 24,000 кадра/сек
Цветовое пространство : YUV
Субдискретизация насыщенности : 4:2:0
Битовая глубина : 8 бит
Тип развёртки : Прогрессивная
Бит/(Пиксели*Кадры) : 0.170
Размер потока : 1,44 Гбайт (80%)
Библиотека кодирования : x264 core 146 r2538 121396c
Настройки программы : cabac=1 / ref=10 / deblock=1:-3:-3 / analyse=0x3:0x113 / me=umh / subme=10 / psy=1 / psy_rd=0.97:0.05 / mixed_ref=1 / me_range=48 / chroma_me=1 / trellis=2 / 8x8dct=1 / cqm=0 / deadzone=21,11 / fast_pskip=1 / chroma_qp_offset=-6 / threads=6 / lookahead_threads=1 / sliced_threads=0 / nr=0 / decimate=1 / interlaced=0 / bluray_compat=0 / constrained_intra=0 / bframes=11 / b_pyramid=2 / b_adapt=2 / b_bias=0 / direct=3 / weightb=1 / open_gop=0 / weightp=2 / keyint=240 / keyint_min=24 / scenecut=40 / intra_refresh=0 / rc_lookahead=40 / rc=2pass / mbtree=0 / bitrate=1783 / ratetol=1.0 / qcomp=0.60 / qpmin=0 / qpmax=69 / qpstep=4 / cplxblur=20.0 / qblur=0.5 / vbv_maxrate=50000 / vbv_bufsize=62500 / nal_hrd=none / filler=0 / ip_ratio=1.40 / pb_ratio=1.30 / aq=1:1.00
Язык : English
Default : Да
Forced : Нет

Аудио
Идентификатор : 2
Формат : AC-3
Формат/Информация : Audio Coding 3
Расширение режима : CM (complete main)
Параметр Endianness формата : Big
Идентификатор кодека : A_AC3
Продолжительность : 1 ч. 55 м.
Вид битрейта : Постоянный
Битрейт : 448 Кбит/сек
Каналы : 6 каналов
Расположение каналов : Front: L C R, Side: L R, LFE
Частота : 48,0 КГц
Частота кадров : 31,250 кадров/сек (1536 spf)
Битовая глубина : 16 бит
Метод сжатия : С потерями
Размер потока : 370 Мбайт (20%)
Заголовок : DUB [Пифагор]
Язык : Russian
Default : Да
Forced : Нет

Текст #1
Идентификатор : 3
Формат : UTF-8
Идентификатор кодека : S_TEXT/UTF8
Идентификатор кодека/Информация : UTF-8 Plain Text
Продолжительность : 1 ч. 30 м.
Битрейт : 2 бит/сек
Count of elements : 32
Размер потока : 1,60 Кбайт (0%)
Заголовок : Forced
Язык : Russian
Default : Да
Forced : Нет

Текст #2
Идентификатор : 4
Формат : UTF-8
Идентификатор кодека : S_TEXT/UTF8
Идентификатор кодека/Информация : UTF-8 Plain Text
Продолжительность : 1 ч. 54 м.
Битрейт : 67 бит/сек
Count of elements : 1226
Размер потока : 56,8 Кбайт (0%)
Заголовок : Full
Язык : Russian
Default : Нет
Forced : Нет

pb.wtf



Скачать В тени Луны через торрент https://i106.fastpic.ru/big/2019/0928/63/73e04b77622fc35060f8aa23bd1d1263.jpg Скачать фильм В тени Луны через торрент бесплантно в хорошем качестве Описание: Полицейский из Филадельфии Томас Локхарт хочет дослужиться до звания детектива. Для этого он решает лично найти опасного ... 9.9 10 14
Торрент: Зарегистрирован [2019-09-28 04:54] · скачан: 626 раз
Статус: √ проверено
Размер: 1.8 GB
Как cкачать? Как скачать В тени Луны через торрент | qTorrent

% Раздел Тема Автор DL S | L
Фильмы 2019 [DVDrip, WEB-DLRip, HDrip] (DUB, MVO) [ 1.46 GB ] В тени Луны / In the Shadow of the Moon [2019 WEB-DLRip] DUB [Пифагор] bober100 Скачать
10 | 0
Ultra HD (UHD: 2K, 4K, 8K) — видео сверхвысокой чёткости [ 13.96 GB ] В тени Луны / In the Shadow of the Moon [2019 UHD WEB-DL 2160p] DUB [Пифагор] bober100 Скачать
8 | 0
Фильмы (WEB-DL 720p, 1080p) [ 4.4 GB ] В тени Луны / In the Shadow of the Moon [2019 WEBRip 1080p] DUB [Пифагор] bober100 Скачать
23 | 0
Документальные фильмы и телепередачи [ 1.37 GB ] В тени Луны / In the Shadow of the Moon [2007 документальный история BDRip Любительский ] schultz Скачать
1 | 0

28-11-2019 20:33  

Отключить всю рекламу на сайте

30-09-2019 07:15 В тени Луны Скачать торрент  

Сперва интересный, но потом блин намудрили.pb.wtf



30-09-2019 19:18 В тени Луны Скачать торрент  

Очередная пропагандистская херня в SJW нарративе. "Всё зло от белых", "Цветные меньшинства спасают Мир" и все такое.. Ах да, самое главное забыл - Да здравствует межрасовый сексpb.wtf



    Дорогой пользователь! Огромная просьба, поблагодарите релизера, оцените раздачу и оставьте свои комментарий, если Вы скачали В тени Луны через торрент бесплатно! Внесите свою лепту в развитие PiratBit!
    Комментировать посты могут только пользователи прошедшие не сложную регистрацию
    Показать сообщения:    

    В тени Луны через торрент
    Скачать бесплатно В тени Луны
    В тени Луны скачать торрент
    В тени Луны смотреть онлайн
    Cкачать фильм В тени Луны бесплатно
    В тени Луны скачать торрент в хорошем качестве
    В тени Луны смотреть онлайн бесплатно в хорошем качестве


    Вы не можете начинать темы
    Вы не можете отвечать на сообщения
    Вы не можете редактировать свои сообщения
    Вы не можете удалять свои сообщения
    Вы не можете голосовать в опросах
    Вы не можете прикреплять файлы к сообщениям
    Вы можете скачивать файлы