Ссылка на приватное зеркало всего за 1$. Внимание количество ограничено!!!

iTunes

iTunes

iTunes

1

iTunes

iTunes

iTunes

iTunes

iTunes

30
pack

$ от Little Big

ВАЖНО

!!Акция!!

Alien_RageХит недели

RePack

Resident Evil 21

ИГРА 18+

pack

RePack

jed

!!Акция!!

Alien_Rage

RePack

fifa19

RePack

Assassins Creed: Odyssey

RePack

NEED FOR SPEED™ PAYBACK

4 сезон

9 сезон

Бесстыжие 9 сезон

Все сериалы

все сериалы на PB.wtf

RePack

FAR CRY 5
  

Южный парк / South Park / Сезон: 23 / Серии: 1-10 из 10 (Трей Паркер, Мэтт Стоун, Эрик Сточ) [2019, мультфильм, комедия, сатира, HDTVRip] MVO [Jaskier] pb.wtf

Южный парк через торрент pb.wtf

Размер: 2.47 GB | Добавлен: 5 мес. 23 д. назад | Торрент скачан:15 раз
Скачать  

28-09-2019 10:55 Южный парк Скачать торрент  

✦ Южный Парк ✦
✦ Год выпуска: 2019
✦ Страна: США
✦ Студия: Comedy Central, South Park Studios
✦ Жанр: мультфильм, комедия, сатира
✦ Продолжительность: ~ 00:23:00
✦ Перевод: Профессиональный (многоголосый) | Jaskier
✦ Субтитры: отсутствуют

✦ Режиссер: Трей Паркер, Мэтт Стоун, Эрик Сточ

rating

В ролях: Трей Паркер, Мэтт Стоун, Мона Маршалл, Айзек Хейз, Эйприл Стюарт, Элиза Шнайдер, Мэри Кэй Бергман, Эдриан Бирд, Дженнифер Хауэлл, Кайл Маккаллок и др.

Описание: Южный Парк / South Park — американский мультсериал, созданный Мэттом Стоуном и Треем Паркером. Иногда название переводится также как «Саут-Парк» или «Саус-Парк». Выпускается кабельным телеканалом Comedy Central с 1997 года. Основу сюжета составляют приключения четырёх мальчиков и их друзей, живущих в маленьком городке Саут-Парк, штат Колорадо. Сериал высмеивает недостатки американской культуры и текущие мировые события, а также подвергает критике множество глубоких убеждений и табу посредством пародии и чёрного юмора. «Южный Парк» выходит поздно вечером и позиционируется как мультфильм для взрослых.

✦ Качество: HDTVRip
✦ Формат: XviD | Avi

✦ Видео: ~ 1350 kbps, 720x400, 23,976 fps
✦ Аудио#1 RU: mp3, 48.0 KHz, 2 ch, 128 kbps
✦ Аудио#2 EN: mp3, 48.0 KHz, 2 ch, 128 kbps
скриншот  скриншот  скриншот  скриншот  скриншот  


Общее
Полное имя : D:\South Park. Season 23 (HDTVRip l 400p l Jaskier)\South.Park.S23E01.HDTVRip.Rus.Eng.Jaskier.avi
Формат : AVI
Формат/Информация : Audio Video Interleave
Размер файла : 251 Мбайт
Продолжительность : 21 м. 41 с.
Общий поток : 1616 Кбит/сек
Программа кодирования : VirtualDubMod 1.5.10.3 | www.virtualdub-fr.org || (build 2550/release)
Библиотека кодирования : VirtualDubMod build 2550/release

Видео
Идентификатор : 0
Формат : MPEG-4 Visual
Профиль формата : Advanced Simple@L5
Параметр BVOP формата : 1
Параметр QPel формата : Нет
Параметр GMC формата : Без точки перехода
Параметр матрицы формата : Выборочная
Идентификатор кодека : XVID
Идентификатор кодека/Подсказка : XviD
Продолжительность : 21 м. 41 с.
Битрейт : 1346 Кбит/сек
Ширина : 720 пикселей
Высота : 400 пикселей
Соотношение сторон : 16:9
Частота кадров : 23,976 (24000/1001) кадра/сек
Цветовое пространство : YUV
Субдискретизация насыщенности : 4:2:0
Битовая глубина : 8 бит
Тип развёртки : Прогрессивная
Метод сжатия : С потерями
Бит/(Пиксели*Кадры) : 0.195
Размер потока : 209 Мбайт (83%)
Библиотека кодирования : XviD 73

Аудио #1
Идентификатор : 1
Формат : MPEG Audio
Версия формата : Version 1
Профиль формата : Layer 3
Режим : Joint stereo
Расширение режима : MS Stereo
Идентификатор кодека : 55
Идентификатор кодека/Подсказка : MP3
Продолжительность : 21 м. 41 с.
Вид битрейта : Постоянный
Битрейт : 128 Кбит/сек
Каналы : 2 канала
Частота : 48,0 КГц
Метод сжатия : С потерями
Размер потока : 19,9 Мбайт (8%)
Выравнивание : Соединение по промежуткам
Продолжительность промежутка : 42 мс. (1,00 видеокадр)
Время предзагрузки промежутка : 504 мс.

Аудио #2
Идентификатор : 2
Формат : MPEG Audio
Версия формата : Version 1
Профиль формата : Layer 3
Режим : Joint stereo
Расширение режима : MS Stereo
Идентификатор кодека : 55
Идентификатор кодека/Подсказка : MP3
Продолжительность : 21 м. 41 с.
Вид битрейта : Постоянный
Битрейт : 128 Кбит/сек
Каналы : 2 канала
Частота : 48,0 КГц
Метод сжатия : С потерями
Размер потока : 19,9 Мбайт (8%)
Выравнивание : Соединение по промежуткам
Продолжительность промежутка : 42 мс. (1,00 видеокадр)
Время предзагрузки промежутка : 504 мс.

Когда раздача ведётся путём добавления новых серий, при каждом добавлении создётся новый торрент. Чтобы начать докачку новой серии, пользователям необходимо сделать следующее:
(1) остановить скачивание,
(2) удалить старый торрент у себя из клиента (старые серии удалять не надо),
(3) скачать новый торрент и запустить его у себя в клиенте вместо старого, при этом указать клиенту путь в старую папку, куда и должно происходить скачивание новых серий.
Ваш клиент при этом должен произвести хеширование (проверку) старой папки (если не производит сам - помогите ему сделать это), и будет докачивать только те серии, которых у вас ещё нет. Старые серии при этом не удаляются, а продолжают раздаваться!
Eсли вы уже удалили старые серии, то предотвратить повторную закачку старых серий можно, отжав галочку в соответсвующих местах при запуске нового торрента. По возможности, желательно не удалять старые серии как можно дольше, чтобы релизёр не столько продолжал раздавать старые серии, а смог сконцентрироваться на новых.
pb.wtf



Скачать Южный парк через торрент https://d.radikal.ru/d14/1909/99/92d893f32c4d.png Скачать фильм Южный парк через торрент бесплантно в хорошем качестве Описание: Южный Парк / South Park — американский мультсериал, созданный Мэттом Стоуном и Треем Паркером. Иногда название переводится также ... 10 10 5
Торрент: Зарегистрирован [2019-12-14 00:57] · скачан: 15 раз
Статус: √ проверено
Размер: 2.47 GB
Как cкачать? Как скачать Южный парк через торрент | qTorrent

% Раздел Тема Автор DL S | L
Мультсериалы [ 6.28 GB ] Южный Парк / South Park / Сезон: 23 / Серии: 1-9 из 10 [2019 сатира WEB-DL 1080p] DVO [Кубик в Кубе] bober100 Скачать
1 | 0
Мультсериалы [ 7.44 GB ] Южный парк / South Park / Сезон: 23 / Серии: 1-10 из 10 [2019 мультфильм сатира HDTV 1080p] MVO [Jaskier] bober100 Скачать
1 | 0
Мультсериалы [ 4.15 GB ] Южный парк / South Park / Сезон: 23 / Серии: 1-10 из 10 [2019 мультфильм сатира WEB-DL 720p] MVO [TVShows] bober100 Скачать
1 | 0
Мультсериалы [ 7.58 GB ] Южный парк / South Park / Сезон: 23 / Серии: 1-10 из 10 [2019 мультфильм сатира WEB-DL 1080p] MVO [TVShows] bober100 Скачать
2 | 1

28-11-2019 20:33  

Отключить всю рекламу на сайте

    Дорогой пользователь! Огромная просьба, поблагодарите релизера, оцените раздачу и оставьте свои комментарий, если Вы скачали Южный парк через торрент бесплатно! Внесите свою лепту в развитие PiratBit!
    Комментировать посты могут только пользователи прошедшие не сложную регистрацию
    Показать сообщения:    

    Южный парк через торрент
    Скачать бесплатно Южный парк
    Южный парк скачать торрент
    Южный парк смотреть онлайн
    Cкачать фильм Южный парк бесплатно
    Южный парк скачать торрент в хорошем качестве
    Южный парк смотреть онлайн бесплатно в хорошем качестве


    Вы не можете начинать темы
    Вы не можете отвечать на сообщения
    Вы не можете редактировать свои сообщения
    Вы не можете удалять свои сообщения
    Вы не можете голосовать в опросах
    Вы не можете прикреплять файлы к сообщениям
    Вы можете скачивать файлы