Всегда рабочее зеркало без VPN и Proxy просто перед .vidak.icu напиши любое слово или цифру, Пример http://ww23.vidak.icu

MVO

MVO

1 сезон

1

1 сезон

iTunes

1 сезон

13

1 сезон

Deluxe

pack

Рекомендуем

Repack

30

ВАЖНО

RePack

MK11

RePack

jed

RePack

fifa19

RePack

RDR2

RePack

NEED FOR SPEED™ PAYBACK

Кинопоиск HD

6 сезон

 Острые козырьки 6 сезон

Все сериалы

все сериалы на PB.wtf

RePack

FAR CRY 5
  
Magnet ссылка

Ken Hensley (ex-URIAH HEEP) & Live Fire - LiVE iN RUSSiA - 2019/ FLAC/ image +.cue/ lossless/ Hard Rock, Progressive Rock pb.wtf

Ken Hensley через торрент pb.wtf

Размер: 428 MB | Добавлен: 2 года 10 мес. назад | Торрент скачан:16 раз
Смотреть онлайн Ken Hensley | Скачать    Ребята, помогите собрать деньги на оплату серверов!!!

28-09-2019 18:42 Ken Hensley Скачать торрент  

(Hard Rock, Progressive Rock) Ken Hensley (ex-URIAH HEEP) & Live Fire - LiVE iN RUSSiA - 2019 [FLAC, image +.cue, lossless]
Ken Hensley (ex-URIAH HEEP) & Live Fire - LiVE iN RUSSiA


Год издания: 2019
Страна: Hertfordshire, England
Жанр: Hard Rock, Progressive Rock
Продолжительность: 01:03:08
Лейбл издания: Secret Records
Страна-выпуска диска: EU
Номер по каталогу: SECD226
Формат: FLAC
Битрейт аудио: Lossless
Тип рипа: image +.cue
Наличие сканов в содержимом раздачи: да


01. The Curse (6:15)
02. Look At Yourself (4:44)
03. Circle Of Hands (7:09)
04. Stealin' (3:51)
05. Easy Living (2:40)
06. Sunrise (4:40)
07. July Morning (11:05)
08. The Wizard (5:25)
09. Lady In Black (11:53)
10. Gypsy (5:27)

Код:

Exact Audio Copy V1.3 from 2. September 2016

EAC extraction logfile from 1. August 2019, 14:24

Ken Hensley & Live Fire / Live In Russia [SECDP226]

Used drive  : HL-DT-STBD-RE  BH10LS38   Adapter: 1  ID: 0

Read mode               : Secure
Utilize accurate stream : Yes
Defeat audio cache      : Yes
Make use of C2 pointers : No

Read offset correction                      : 667
Overread into Lead-In and Lead-Out          : No
Fill up missing offset samples with silence : Yes
Delete leading and trailing silent blocks   : No
Null samples used in CRC calculations       : Yes
Used interface                              : Native Win32 interface for Win NT & 2000

Used output format              : User Defined Encoder
Selected bitrate                : 128 kBit/s
Quality                         : High
Add ID3 tag                     : No
Command line compressor         : C:\Program Files (x86)\Exact Audio Copy\Flac\flac.exe
Additional command line options : -V -8 -T "Date=%year%" -T "Genre=%genre%" %source%

TOC of the extracted CD

     Track |   Start  |  Length  | Start sector | End sector
    ---------------------------------------------------------
        1  |  0:00.00 |  6:14.59 |         0    |    28108
        2  |  6:14.59 |  4:44.03 |     28109    |    49411
        3  | 10:58.62 |  7:09.13 |     49412    |    81599
        4  | 18:08.00 |  3:50.52 |     81600    |    98901
        5  | 21:58.52 |  2:39.39 |     98902    |   110865
        6  | 24:38.16 |  4:40.05 |    110866    |   131870
        7  | 29:18.21 | 11:05.11 |    131871    |   181756
        8  | 40:23.32 |  5:24.71 |    181757    |   206127
        9  | 45:48.28 | 11:53.34 |    206128    |   259636
       10  | 57:41.62 |  5:26.38 |    259637    |   284124

Range status and errors

Selected range

     Filename D:\Ken Hensley & Live Fire - Live In Russia [SECDP226].wav

     Peak level 91.7 %
     Extraction speed 2.2 X
     Range quality 100.0 %
     Test CRC 498F8231
     Copy CRC 498F8231
     Copy OK

No errors occurred

AccurateRip summary

Track  1  not present in database
Track  2  not present in database
Track  3  not present in database
Track  4  not present in database
Track  5  not present in database
Track  6  not present in database
Track  7  not present in database
Track  8  not present in database
Track  9  not present in database
Track 10  not present in database

None of the tracks are present in the AccurateRip database

End of status report

Код:

REM GENRE "Hard Rock"
REM DATE 2019
REM DISCID 740ECC0A
REM COMMENT "ExactAudioCopy v1.3"
PERFORMER "Ken Hensley & Live Fire"
TITLE "Live In Russia [SECDP226]"
REM COMPOSER ""
FILE "Ken Hensley & Live Fire - Live In Russia [SECDP226].flac" WAVE
  TRACK 01 AUDIO
    TITLE "The Curse"
    PERFORMER "Ken Hensley & Live Fire"
    REM COMPOSER ""
    INDEX 01 00:00:00
  TRACK 02 AUDIO
    TITLE "Look At Yourself"
    PERFORMER "Ken Hensley & Live Fire"
    REM COMPOSER ""
    INDEX 01 06:14:59
  TRACK 03 AUDIO
    TITLE "Circle Of Hands"
    PERFORMER "Ken Hensley & Live Fire"
    REM COMPOSER ""
    INDEX 01 10:58:62
  TRACK 04 AUDIO
    TITLE "Stealin'"
    PERFORMER "Ken Hensley & Live Fire"
    REM COMPOSER ""
    INDEX 01 18:08:00
  TRACK 05 AUDIO
    TITLE "Easy Living"
    PERFORMER "Ken Hensley & Live Fire"
    REM COMPOSER ""
    INDEX 01 21:58:52
  TRACK 06 AUDIO
    TITLE "Sunrise"
    PERFORMER "Ken Hensley & Live Fire"
    REM COMPOSER ""
    INDEX 01 24:38:16
  TRACK 07 AUDIO
    TITLE "July Morning"
    PERFORMER "Ken Hensley & Live Fire"
    REM COMPOSER ""
    INDEX 01 29:18:21
  TRACK 08 AUDIO
    TITLE "The Wizard"
    PERFORMER "Ken Hensley & Live Fire"
    REM COMPOSER ""
    INDEX 01 40:23:32
  TRACK 09 AUDIO
    TITLE "Lady In Black"
    PERFORMER "Ken Hensley & Live Fire"
    REM COMPOSER ""
    INDEX 01 45:48:28
  TRACK 10 AUDIO
    TITLE "Gypsy"
    PERFORMER "Ken Hensley & Live Fire"
    REM COMPOSER ""
    INDEX 01 57:41:62



pb.wtf



Скачать Ken Hensley через торрент http://i90.fastpic.ru/big/2019/0928/db/8acb6750fed4966dd2214eae3dc85edb.png Скачать, смотреть онлайн Ken Hensley бесплантно в хорошем качестве Трэклист The Curse (6:15) Look At Yourself (4:44) Circle Of Hands (7:09) Stealin' (3:51) Easy Living (2:40) ... 5 10 1
Торрент: Зарегистрирован [2019-09-28 18:42] · скачан: 16 раз
Статус: √ проверено
Размер: 428 MB
Как cкачать? Как скачать Ken Hensley через торрент | UTorrent

28-11-2019 20:33  

Отключить вcю реклaмy на сайте

    Дорогой пользователь! Огромная просьба, поблагодарите релизера, оцените раздачу и оставьте свои комментарий, если Вы скачали Ken Hensley через торрент бесплатно!
    Комментировать посты могут только пользователи прошедшие не сложную регистрацию
    Показать сообщения:    

    Ken Hensley через торрент
    Скачать бесплатно Ken Hensley
    Ken Hensley скачать торрент
    Ken Hensley смотреть онлайн
    Cкачать фильм Ken Hensley бесплатно
    Ken Hensley скачать торрент в хорошем качестве
    Ken Hensley смотреть онлайн бесплатно в хорошем качестве


    Вы не можете начинать темы
    Вы не можете отвечать на сообщения
    Вы не можете редактировать свои сообщения
    Вы не можете удалять свои сообщения
    Вы не можете голосовать в опросах
    Вы не можете прикреплять файлы к сообщениям
    Вы можете скачивать файлы