Ссылка на приватное зеркало всего за 1$. Внимание количество ограничено!!!

OK

1+1

iTunes

мы

OK

1

WEB-DLRip

Джокер

Пифагор

Ведьмак / The Witcher сериал

iTunes

ПШазам

ОК

Оно 2

iTunes

30
pack

Вам бонус

ВАЖНО

!!Акция!!

Alien_RageХит недели

RePack

Resident Evil 21

ИГРА 18+

pack

RePack

jed

RePack

fifa19

RePack

Assassins Creed: Odyssey

RePack

NEED FOR SPEED™ PAYBACK

4 сезон

9 сезон

Бесстыжие 9 сезон

Все сериалы

все сериалы на PB.wtf

RePack

FAR CRY 5
  

Супершпион / Gun Shy (Эрик Блейкни) [2000, мелодрама, комедия, криминал, BDRip (AVC) by msltel] DVO pb.wtf

Супершпион через торрент pb.wtf

Размер: 2.84 GB | Добавлен: 3 мес. 26 д. назад | Торрент скачан:16 раз
Скачать  

29-09-2019 06:01 Супершпион Скачать торрент  

Название: Супершпион
Оригинальное название: Gun Shy
Год выпуска: 2000
Страна: США
Жанр: мелодрама, комедия, криминал
Продолжительность: 01:41:35
Перевод: закадровый двухголосый

Режиссер: Эрик Блейкни
В ролях: Лиам Нисон, Оливер Плэтт, Хосе Суньига, Майкл ДеЛоренцо, Эндрю Лоэр, Ричард Шифф, Пол Бен-Виктор, Грегг Дэниэл, Бен Вебер, Сандра Баллок, Мэри МакКормак, Майкл Мэнтелл, Митч Пиледжи, Луис Гьямбалво, Рик Питерс, Дасти Кэй, Джерри Стал, Майкл Уэтерли, Хэнк Стрэттон, Фрэнк Винсент, Фрэнки Рэй, Тейлор Негрон, Джо Маруццо, Аарон Лустиг, Мишель Джойнер, Мэнни Перри, Дэвид Карпентер, Томми Морган мл., Минди Крист, Рамона Кейс, Дерек Ситтер, Рон Ривз, Трэйси Филлипс, Натали Уэбб

О фильме: Чарли, секретный агент управления по борьбе с наркотиками под прикрытием, винит себя в гибели напарника из-за своей неосторожности. Потерявший хватку, агент хочет уволиться с работы, но его начальники этого не позволяют, так как слишком долго создавалось прикрытие для Чарли. Однажды, летя в самолёте, Чарли знакомится с психиатром Блэкнером и записывается на его курсы лечения в Нью-Йорке. Также он знакомится с медсестрой Джудит, и у них завязываются романтические отношения. Попутно, Чарли должен разобраться с непредсказуемым гангстером Фульвио, который является представителем итальянской мафии в Нью-Йорке и которого Чарли боится до ужаса...



Качество: BDRip (AVC)
Формат: MKV
Видео: MPEG-4 AVC, 3108 Кбит/с, 1024x552, 23.976 кадр/с
Аудио 1: русский, AC3, 448 kbps, 6 ch, 48 kHz [закадровый двухголосый, R5]
Аудио 2: английский, AC3, 448 kbps, 6 ch, 48 kHz [оригинал]
Субтитры 1: русские
Субтитры 2: английские
Главы/чаптеры
Общее
Уникальный идентификатор : 191837740019841660641430816014189278878 (0x90529AD3F63118A7A80AD5C81831369E)
Полное имя : D:\Video\Супершпион.2000.BDRip (AVC) by msltel.mkv
Формат : Matroska
Версия формата : Version 4
Размер файла : 2,84 Гбайт
Продолжительность : 1 ч. 41 м.
Общий поток : 4007 Кбит/сек
Название фильма : Rip by msltel
Дата кодирования : UTC 2019-09-29 02:19:43
Программа кодирования : mkvmerge v8.2.0 ('World of Adventure') 64bit
Библиотека кодирования : libebml v1.3.1 + libmatroska v1.4.2

Видео
Идентификатор : 1
Формат : AVC
Формат/Информация : Advanced Video Codec
Профиль формата : High@L4.1
Настройки формата : CABAC / 9 Ref Frames
Параметр CABAC формата : Да
Параметр RefFrames формата : 9 кадров
Идентификатор кодека : V_MPEG4/ISO/AVC
Продолжительность : 1 ч. 41 м.
Битрейт : 3108 Кбит/сек
Ширина : 1024 пикселя
Высота : 552 пикселя
Соотношение сторон : 1,85:1
Режим частоты кадров : Постоянный
Частота кадров : 23,976 (24000/1001) кадра/сек
Цветовое пространство : YUV
Субдискретизация насыщенности : 4:2:0
Битовая глубина : 8 бит
Тип развёртки : Прогрессивная
Бит/(Пиксели*Кадры) : 0.229
Размер потока : 2,21 Гбайт (78%)
Библиотека кодирования : x264 core 157 r2935 545de2f
Настройки программы : cabac=1 / ref=9 / deblock=1:-2:-2 / analyse=0x3:0x113 / me=umh / subme=11 / psy=1 / psy_rd=1.00:0.15 / mixed_ref=1 / me_range=32 / chroma_me=1 / trellis=2 / 8x8dct=1 / cqm=0 / deadzone=21,11 / fast_pskip=0 / chroma_qp_offset=-3 / threads=6 / lookahead_threads=1 / sliced_threads=0 / nr=0 / decimate=1 / interlaced=0 / bluray_compat=0 / constrained_intra=0 / bframes=12 / b_pyramid=2 / b_adapt=2 / b_bias=0 / direct=1 / weightb=1 / open_gop=0 / weightp=2 / keyint=230 / keyint_min=23 / scenecut=40 / intra_refresh=0 / rc_lookahead=40 / rc=crf / mbtree=1 / crf=17.8 / qcomp=0.60 / qpmin=0 / qpmax=69 / qpstep=4 / vbv_maxrate=50000 / vbv_bufsize=62500 / crf_max=0.0 / nal_hrd=none / filler=0 / ip_ratio=1.40 / aq=1:1.00
Язык : English
Default : Да
Forced : Нет

Аудио #1
Идентификатор : 2
Формат : AC-3
Формат/Информация : Audio Coding 3
Коммерческое название : Dolby Digital
Идентификатор кодека : A_AC3
Продолжительность : 1 ч. 41 м.
Вид битрейта : Постоянный
Битрейт : 448 Кбит/сек
Каналы : 6 каналов
ChannelLayout : L R C LFE Ls Rs
Частота : 48,0 КГц
Частота кадров : 31,250 кадров/сек (1536 SPF)
Метод сжатия : С потерями
Размер потока : 326 Мбайт (11%)
Заголовок : DVO R5
Язык : Russian
ServiceKind/String : Complete Main
Default : Да
Forced : Нет

Аудио #2
Идентификатор : 3
Формат : AC-3
Формат/Информация : Audio Coding 3
Коммерческое название : Dolby Digital
Идентификатор кодека : A_AC3
Продолжительность : 1 ч. 41 м.
Вид битрейта : Постоянный
Битрейт : 448 Кбит/сек
Каналы : 6 каналов
ChannelLayout : L R C LFE Ls Rs
Частота : 48,0 КГц
Частота кадров : 31,250 кадров/сек (1536 SPF)
Метод сжатия : С потерями
Размер потока : 326 Мбайт (11%)
Заголовок : original
Язык : English
ServiceKind/String : Complete Main
Default : Нет
Forced : Нет

Текст #1
Идентификатор : 4
Формат : UTF-8
Идентификатор кодека : S_TEXT/UTF8
Идентификатор кодека/Информация : UTF-8 Plain Text
Продолжительность : 1 ч. 36 м.
Битрейт : 123 бит/сек
ElementCount : 1593
Размер потока : 87,0 Кбайт (0%)
Заголовок : русские
Язык : Russian
Default : Нет
Forced : Нет

Текст #2
Идентификатор : 5
Формат : UTF-8
Идентификатор кодека : S_TEXT/UTF8
Идентификатор кодека/Информация : UTF-8 Plain Text
Продолжительность : 1 ч. 40 м.
Битрейт : 86 бит/сек
ElementCount : 1409
Размер потока : 63,8 Кбайт (0%)
Заголовок : английские
Язык : English
Default : Нет
Forced : Нет

Меню
00:00:00.000 : :Chapter 1
00:09:14.803 : :Chapter 2
00:20:22.679 : :Chapter 3
00:32:32.032 : :Chapter 4
00:47:44.235 : :Chapter 5
01:02:18.275 : :Chapter 6
01:14:34.386 : :Chapter 7
01:25:51.854 : :Chapter 8
pb.wtf



Скачать Супершпион через торрент https://d.radikal.ru/d41/1909/79/5ba894f03dfc.png Скачать фильм Супершпион через торрент бесплантно в хорошем качестве О фильме: Чарли, секретный агент управления по борьбе с наркотиками под прикрытием, винит себя в гибели напарника из-за своей ... 10 10 1
Торрент: Зарегистрирован [2019-09-29 06:01] · скачан: 16 раз
Статус: √ проверено
Размер: 2.84 GB
Как cкачать? Как скачать Супершпион через торрент | qTorrent

% Раздел Тема Автор DL S | L
Фильмы [HD 720p, 1080p] (Хороший звук DUB, MVO) [ 13.62 GB ] Супершпион / Gun Shy [2000 BDRip 1080p by msltel] DVO msltel Скачать
1 | 0
Фильмы [HD 720p, 1080p] (Хороший звук DUB, MVO) [ 5.14 GB ] Супершпион / Gun Shy [2000 BDRip 720p by msltel] DVO msltel Скачать
2 | 0

28-11-2019 20:33  

Отключить всю рекламу на сайте

    Дорогой пользователь! Огромная просьба, поблагодарите релизера, оцените раздачу и оставьте свои комментарий, если Вы скачали Супершпион через торрент бесплатно! Внесите свою лепту в развитие PiratBit!
    Комментировать посты могут только пользователи прошедшие не сложную регистрацию
    Показать сообщения:    

    Супершпион через торрент
    Скачать бесплатно Супершпион
    Супершпион скачать торрент
    Супершпион смотреть онлайн
    Cкачать фильм Супершпион бесплатно
    Супершпион скачать торрент в хорошем качестве
    Супершпион смотреть онлайн бесплатно в хорошем качестве


    Вы не можете начинать темы
    Вы не можете отвечать на сообщения
    Вы не можете редактировать свои сообщения
    Вы не можете удалять свои сообщения
    Вы не можете голосовать в опросах
    Вы не можете прикреплять файлы к сообщениям
    Вы можете скачивать файлы