Ссылка на приватное зеркало нашего сайта всего за 1$. Внимание количество ограничено!!!

2 сезон

iTunes

1 сезон

1

iTunes

iTunes

iTunes

1 сезон

RePack

30

ИГРА 18+

pack

ВАЖНО

!!Акция!!

Alien_RageХит недели

RePack

MK11
pack

Забери бонус

RePack

jed

!!Акция!!

Alien_Rage

RePack

fifa19

RePack

Assassins Creed: Odyssey

RePack

NEED FOR SPEED™ PAYBACK

4 сезон

9 сезон

Бесстыжие 9 сезон

Все сериалы

все сериалы на PB.wtf

RePack

FAR CRY 5
  

Агата и сыск. Королева брильянтов / Серии: 1-4 из 4 (Владимир Койфман) [2019, Детектив, исторический, WEB-DLRip] pb.wtf

Агата и сыск. Королева брильянтов через торрент pb.wtf

Размер: 2.25 GB | Добавлен: 1 год назад | Торрент скачан:68 раз
Скачать  

29-09-2019 12:47 Агата и сыск. Королева брильянтов Скачать торрент  

Агата и сыск. Королева брильянтов Год выпуска: 2019
Производство: Россия, ООО «Зебра»
Жанр: Детектив, исторический
Продолжительность: ~ 00:45:00
Субтитры: Отсутствуют

Режиссёр: Владимир Койфман

В ролях: Дарья Ленда, Константин Крюков, Александр Половцев, Борис Хвошнянский, Егор Бакулин, Константин Шелестун, Светлана Обидина, Татьяна Полонская, Василий Рукша, Вера Плешанова

Описание: По мотивам одноименного романа Антона Чижа. Конец 19 века. Она – начинающая мошенница. Юная, обворожительная, легко меняющая внешность. Он – проницательный, нестандартно мыслящий сыщик. Ее фамилия – Керн. Его – Пушкин. Совпадение или знак судьбы? Что толкнуло молодую дворянку на путь преступления, и как далеко сей путь может ее завести? Где ловкий сыщик устроит мошеннице западню и знакомо ли ему милосердие? Как завершится их поединок, в который, помимо авантюрной интриги, вплетаются убийства, мистика и, конечно, любовь?

Премьера: 28 сентября 2019 года (ТВЦ)

Реклама: Отсутствует
Сэмпл: http://multi-up.com/1242279


Качество: WEB-DLRip
Формат: AVI

Видео: 720x400 (1.80:1), 25 fps, XviD build 73 ~1550 kbps avg, 0.22 bit/pixel
Аудио: 48 kHz, AC3 Dolby Digital, 2/0 (L,R) ch, ~192 kbps
скриншот  скриншот  скриншот  скриншот  

Общее
Полное имя : D:\Агата и сыск. Королева брильянтов.2019. WEB-DLRip. Files-x\01. Агата и сыск. Королева брильянтов.2019. WEB-DLRip. Files-x.avi
Формат : AVI
Формат/Информация : Audio Video Interleave
Размер файла : 573 Мбайт
Продолжительность : 44 м. 26 с.
Общий поток : 1802 Кбит/сек
Программа кодирования : VirtualDubMod 1.5.10.3 | www.virtualdub-fr.org || (build 2550/release)
Библиотека кодирования : VirtualDubMod build 2550/release

Видео
Идентификатор : 0
Формат : MPEG-4 Visual
Профиль формата : Advanced Simple@L5
Параметр BVOP формата : 1
Параметр QPel формата : Нет
Параметр GMC формата : Без точки перехода
Параметр матрицы формата : Выборочная
Идентификатор кодека : XVID
Идентификатор кодека/Подсказка : XviD
Продолжительность : 44 м. 26 с.
Битрейт : 1600 Кбит/сек
Ширина : 720 пикселей
Высота : 400 пикселей
Соотношение сторон : 16:9
Частота кадров : 25,000 кадров/сек
Цветовое пространство : YUV
Субдискретизация насыщенности : 4:2:0
Битовая глубина : 8 бит
Тип развёртки : Прогрессивная
Метод сжатия : С потерями
Бит/(Пиксели*Кадры) : 0.222
Размер потока : 508 Мбайт (89%)
Библиотека кодирования : XviD 73

Аудио
Идентификатор : 1
Формат : AC-3
Формат/Информация : Audio Coding 3
Расширение режима : CM (complete main)
Параметр Endianness формата : Big
Идентификатор кодека : 2000
Продолжительность : 44 м. 26 с.
Вид битрейта : Постоянный
Битрейт : 192 Кбит/сек
Каналы : 2 канала
Расположение каналов : Front: L R
Частота : 48,0 КГц
Частота кадров : 31,250 кадров/сек (1536 spf)
Метод сжатия : С потерями
Размер потока : 61,0 Мбайт (11%)
Выравнивание : Разделение по промежуткам
Продолжительность промежутка : 40 мс. (1,00 видеокадр)
Время предзагрузки промежутка : 500 мс.

pb.wtf



Скачать Агата и сыск. Королева брильянтов через торрент https://i106.fastpic.ru/big/2019/0928/d1/ffcaf8ee152dcd0c44c66554afe8c1d1.jpg Скачать фильм Агата и сыск. Королева брильянтов через торрент бесплантно в хорошем качестве Описание: По мотивам одноименного романа Антона Чижа. Конец 19 века. Она – начинающая мошенница. Юная, обворожительная, легко меняющая ... 10 10 5
Торрент: Зарегистрирован [2019-09-29 12:47] · скачан: 68 раз
Статус: √ проверено
Размер: 2.25 GB
Как cкачать? Как скачать Агата и сыск. Королева брильянтов через торрент | qTorrent

% Раздел Тема Автор DL S | L
Наши сериалы [ 3.47 GB ] Агата и сыск. Королева брильянтов / Серии: 1-4 из 4 [2019 исторический WEB-DL 720p] bober100 Скачать
1 | 0
Наши сериалы [ 6.76 GB ] Агата и сыск. Королева брильянтов / Серии: 1-4 из 4 [2019 исторический WEB-DL 1080p] bober100 Скачать
1 | 0
Наши сериалы [ 2.24 GB ] Агата и сыск. Королева брильянтов / Серии: 1-4 из 4 [2019 исторический WEB-DLRip-AVC] bober100 Скачать
1 | 0
Наши сериалы [ 2.09 GB ] Агата и сыск. Королева брильянтов / Серии: 1-4 из 4 [2019 история экранизация SATRip-AVC] aleksan55 Скачать
1 | 0
Наши сериалы [ 2.34 GB ] Агата и сыск. Королева брильянтов / Серии: 1-4 из 4 [2019 исторический SATRip] bober100 Скачать
1 | 0

28-11-2019 20:33  

Отключить всю рекламу на сайте

    Дорогой пользователь! Огромная просьба, поблагодарите релизера, оцените раздачу и оставьте свои комментарий, если Вы скачали Агата и сыск. Королева брильянтов через торрент бесплатно! Внесите свою лепту в развитие PiratBit!
    Комментировать посты могут только пользователи прошедшие не сложную регистрацию
    Показать сообщения:    

    Агата и сыск. Королева брильянтов через торрент
    Скачать бесплатно Агата и сыск. Королева брильянтов
    Агата и сыск. Королева брильянтов скачать торрент
    Агата и сыск. Королева брильянтов смотреть онлайн
    Cкачать фильм Агата и сыск. Королева брильянтов бесплатно
    Агата и сыск. Королева брильянтов скачать торрент в хорошем качестве
    Агата и сыск. Королева брильянтов смотреть онлайн бесплатно в хорошем качестве


    Вы не можете начинать темы
    Вы не можете отвечать на сообщения
    Вы не можете редактировать свои сообщения
    Вы не можете удалять свои сообщения
    Вы не можете голосовать в опросах
    Вы не можете прикреплять файлы к сообщениям
    Вы можете скачивать файлы