Ссылка на приватное зеркало всего за 1$. Внимание количество ограничено!!!

OK

1+1

iTunes

мы

OK

1

WEB-DLRip

Джокер

Пифагор

Ведьмак / The Witcher сериал

Лицензия

ПШазам

ОК

Оно 2

iTunes

30
pack

Вам бонус

ВАЖНО

!!Акция!!

Alien_RageХит недели

RePack

Resident Evil 21

ИГРА 18+

pack

RePack

jed

!!Акция!!

Alien_Rage

RePack

fifa19

RePack

Assassins Creed: Odyssey

RePack

NEED FOR SPEED™ PAYBACK

4 сезон

9 сезон

Бесстыжие 9 сезон

Все сериалы

все сериалы на PB.wtf

RePack

FAR CRY 5
  

Зов волка / Le chant du loup (Абель Ланзак) [2019, боевик, драма, BDRip 1080p] DUB [iTunes] +MVO [CВ Студия] pb.wtf

Зов волка через торрент pb.wtf

Раздают: 4 [ 252 KB/s ]
Размер: 10.62 GB | Добавлен: 3 мес. 21 д. назад | Торрент скачан:184 раза
Скачать  

29-09-2019 19:25 Зов волка Скачать торрент  

Зов волка / Le chant du loup
Год выпуска: 2019
Страна: Франция
Жанр: боевик, драма
Продолжительность: 01:55:45
Перевод:

#1 Дублированный | iTunes
#2 Профессиональный (многоголосый) | CВ Студия

Субтитры: английские (полные), французские (полные)

Режиссер: Абель Ланзак

rating

В ролях:

Франсуа Сивиль (Chanteraide), Омар Си (D'Orsi), Матьё Кассовиц (Alfost), Реда Катеб (Grandchamp), Паула Бир (Diane), Алексис Михалик (Second SNLE-B2R), Жан-Ив Бертело (Commandant CIRA), Дамиен Боннар (Officier navigation SNLE), Pierre Cevaer (Veilleur sonar SNA), Себастьен Либессар (Cadet SNA), Paul Granier (Opérateur table SNA), Etienne Guillou-Kervern (Maître de centrale)
Описание: Молодой подводник обладает редким даром распознавать каждый звук, который он слышит. От его «Золотого уха» зависят судьбы людей, а ошибка ставит под угрозу жизнь всего экипажа подводной лодки. Желая вернуть доверие своих товарищей, он проводит собственное расследование военной провокации, в результате которой весь мир оказывается в шаге от ядерного апокалипсиса. Чтобы предотвратить мировую войну, элитной боевой команде подлодки необходимо совершить невозможное, ведь главный приказ отмене не подлежит.

Качество: BDRip 1080p
Формат: MKV

Видео: MPEG-4 AVC, 1920x804, 11660 kbps, 23,976 fps
Аудио#1: русский, AC3, 5.1 ch, 48 kHz, 384 kbps | iTunes
Аудио#2: русский, AC3, 5.1 ch, 48 kHz, 640 kbps | СВ Студия
Аудио#3: французский, AC3, 5.1 ch, 48 kHz, 448 kbps | Оригинал
скриншот  скриншот  скриншот  скриншот  скриншот  

Общее
Уникальный идентификатор : 209803637454788504627962550673769681015 (0x9DD6B5F5C7A94B9EAC4CE6147546D077)
Полное имя : G:Torrent2ZovVolkaBDRip1080p.mkv
Формат : Matroska
Версия формата : Version 4 / Version 2
Размер файла : 10,6 Гбайт
Продолжительность : 1 ч. 55 м.
Общий поток : 13,1 Мбит/сек
Дата кодирования : UTC 2019-09-29 18:40:35
Программа кодирования : mkvmerge v9.5.0 ('Quiet Fire') 64bit
Библиотека кодирования : libebml v1.3.4 + libmatroska v1.4.5

Видео
Идентификатор : 1
Формат : AVC
Формат/Информация : Advanced Video Codec
Профиль формата : High@L4.1
Настройки формата : CABAC / 5 Ref Frames
Параметр CABAC формата : Да
Параметр RefFrames формата : 5 кадров
Идентификатор кодека : V_MPEG4/ISO/AVC
Продолжительность : 1 ч. 55 м.
Битрейт : 11,7 Мбит/сек
Ширина : 1920 пикселей
Высота : 804 пикселя
Соотношение сторон : 2,40:1
Режим частоты кадров : Постоянный
Частота кадров : 23,976 (24000/1001) кадра/сек
Цветовое пространство : YUV
Субдискретизация насыщенности : 4:2:0
Битовая глубина : 8 бит
Тип развёртки : Прогрессивная
Бит/(Пиксели*Кадры) : 0.315
Размер потока : 9,43 Гбайт (89%)
Заголовок : Sisendrovich(R)
Библиотека кодирования : x264 core 157 r2958 57baac4
Настройки программы : cabac=1 / ref=5 / deblock=1:-1:-1 / analyse=0x3:0x133 / me=tesa / subme=11 / psy=1 / psy_rd=1.00:0.00 / mixed_ref=1 / me_range=32 / chroma_me=1 / trellis=2 / 8x8dct=1 / cqm=0 / deadzone=21,11 / fast_pskip=0 / chroma_qp_offset=-2 / threads=17 / lookahead_threads=4 / sliced_threads=0 / nr=0 / decimate=0 / interlaced=0 / bluray_compat=0 / constrained_intra=0 / bframes=16 / b_pyramid=2 / b_adapt=2 / b_bias=0 / direct=3 / weightb=1 / open_gop=0 / weightp=2 / keyint=240 / keyint_min=23 / scenecut=40 / intra_refresh=0 / rc_lookahead=120 / rc=2pass / mbtree=0 / bitrate=11660 / ratetol=1.0 / qcomp=0.70 / qpmin=0 / qpmax=69 / qpstep=4 / cplxblur=20.0 / qblur=0.5 / vbv_maxrate=50000 / vbv_bufsize=62500 / nal_hrd=none / filler=0 / ip_ratio=1.40 / pb_ratio=1.30 / aq=3:0.90
Язык : French
Default : Да
Forced : Нет
Цветовой диапазон : Limited
Основные цвета : BT.709
Характеристики трансфера : BT.709
Коэффициенты матрицы : BT.709

Аудио #1
Идентификатор : 2
Формат : AC-3
Формат/Информация : Audio Coding 3
Параметр Endianness формата : Big
Идентификатор кодека : A_AC3
Продолжительность : 1 ч. 55 м.
Вид битрейта : Постоянный
Битрейт : 384 Кбит/сек
Каналы : 6 каналов
Расположение каналов : Front: L C R, Side: L R, LFE
Частота : 48,0 КГц
Частота кадров : 31,250 кадров/сек (1536 SPF)
Битовая глубина : 16 бит
Метод сжатия : С потерями
Размер потока : 318 Мбайт (3%)
Заголовок : iTunes
Язык : Russian
Default : Да
Forced : Нет

Аудио #2
Идентификатор : 3
Формат : AC-3
Формат/Информация : Audio Coding 3
Параметр Endianness формата : Big
Идентификатор кодека : A_AC3
Продолжительность : 1 ч. 55 м.
Вид битрейта : Постоянный
Битрейт : 640 Кбит/сек
Каналы : 6 каналов
Расположение каналов : Front: L C R, Side: L R, LFE
Частота : 48,0 КГц
Частота кадров : 31,250 кадров/сек (1536 SPF)
Битовая глубина : 16 бит
Метод сжатия : С потерями
Размер потока : 530 Мбайт (5%)
Заголовок : СВ Студия
Язык : Russian
Default : Нет
Forced : Нет

Аудио #3
Идентификатор : 4
Формат : AC-3
Формат/Информация : Audio Coding 3
Параметр Endianness формата : Big
Идентификатор кодека : A_AC3
Продолжительность : 1 ч. 55 м.
Вид битрейта : Постоянный
Битрейт : 448 Кбит/сек
Каналы : 6 каналов
Расположение каналов : Front: L C R, Side: L R, LFE
Частота : 48,0 КГц
Частота кадров : 31,250 кадров/сек (1536 SPF)
Битовая глубина : 16 бит
Метод сжатия : С потерями
Размер потока : 371 Мбайт (3%)
Заголовок : fre
Язык : French
Default : Нет
Forced : Нет

Текст #1
Идентификатор : 5
Формат : UTF-8
Идентификатор кодека : S_TEXT/UTF8
Идентификатор кодека/Информация : UTF-8 Plain Text
Продолжительность : 1 ч. 54 м.
Битрейт : 37 бит/сек
ElementCount : 1167
Размер потока : 31,5 Кбайт (0%)
Заголовок : engFull
Язык : English
Default : Нет
Forced : Нет

Текст #2
Идентификатор : 6
Формат : UTF-8
Идентификатор кодека : S_TEXT/UTF8
Идентификатор кодека/Информация : UTF-8 Plain Text
Продолжительность : 1 ч. 54 м.
Битрейт : 54 бит/сек
ElementCount : 1627
Размер потока : 45,6 Кбайт (0%)
Заголовок : freFull
Язык : French
Default : Нет
Forced : Нет

Меню
00:00:00.000 : :Chapter 01
00:12:02.138 : :Chapter 02
00:22:56.792 : :Chapter 03
00:32:05.298 : :Chapter 04
00:40:23.880 : :Chapter 05
00:51:37.594 : :Chapter 06
01:01:49.289 : :Chapter 07
01:12:54.662 : :Chapter 08
01:19:21.131 : :Chapter 09
01:28:48.949 : :Chapter 10
01:39:49.567 : :Chapter 11
01:49:54.421 : :Chapter 12

pb.wtf



Скачать Зов волка через торрент http://lostpix.com/thumbs/2019-09/29/xdyx2no7npx2zp25tcpfo6vum.png Скачать фильм Зов волка через торрент бесплантно в хорошем качестве Описание: Молодой подводник обладает редким даром распознавать каждый звук, который он слышит. От его «Золотого уха» зависят судьбы людей, ... 10 10 6
Торрент: Зарегистрирован [2019-09-29 19:25] · скачан: 184 раз
Статус: √ проверено
Размер: 10.62 GB
Как cкачать? Как скачать Зов волка через торрент | qTorrent

% Раздел Тема Автор DL S | L
Фильмы 2019-2020 [DVDrip, WEB-DLRip, HDrip] (DUB, MVO) [ 1.91 GB ] Зов волка / Le chant du loup [2019 BDRip-AVC] Dub - ExKinoRay Enigma2010 Скачать
149 | 9
Фильмы 2019-2020 [DVDrip, WEB-DLRip, HDrip] (DUB, MVO) [ 1.45 GB ] Зов волка / Le chant du loup [2019 BDRip] bober100 Скачать
7 | 0
Фильмы [HD 720p, 1080p] (Хороший звук DUB, MVO) [ 5.7 GB ] Зов волка / Le chant du loup [2019 BDRip 720p] +MVO [CВ Студия] bober100 Скачать
2 | 0
Фильмы 2019-2020 [DVDrip, WEB-DLRip, HDrip] (DUB, MVO) [ 2.13 GB ] Зов волка / Le chant du loup [2019 BDRip] bober100 Скачать
4 | 0
Фильмы 2019-2020 [DVDrip, WEB-DLRip, HDrip] (DUB, MVO) [ 1.46 GB ] Зов волка / Le chant du loup [2019 BDRip-AVC] MVO [СВ Студия] sokol_ok Скачать
24 | 1
Фильмы 2019-2020 [DVDrip, WEB-DLRip, HDrip] (DUB, MVO) [ 2.95 GB ] Зов волка / Le chant du loup [2019 BDRip-AVC] MVO [СВ Студия] sokol_ok Скачать
18 | 1
Ultra HD (UHD: 2K, 4K, 8K) — видео сверхвысокой чёткости [ 13.53 GB ] Зов волка / Le chant du loup [2019 военный UHD BDRip 2160p] MVO [СВ Студия] sheker187 Скачать
1 | 0

28-11-2019 20:33  

Отключить всю рекламу на сайте

    Дорогой пользователь! Огромная просьба, поблагодарите релизера, оцените раздачу и оставьте свои комментарий, если Вы скачали Зов волка через торрент бесплатно! Внесите свою лепту в развитие PiratBit!
    Комментировать посты могут только пользователи прошедшие не сложную регистрацию
    Показать сообщения:    

    Зов волка через торрент
    Скачать бесплатно Зов волка
    Зов волка скачать торрент
    Зов волка смотреть онлайн
    Cкачать фильм Зов волка бесплатно
    Зов волка скачать торрент в хорошем качестве
    Зов волка смотреть онлайн бесплатно в хорошем качестве


    Вы не можете начинать темы
    Вы не можете отвечать на сообщения
    Вы не можете редактировать свои сообщения
    Вы не можете удалять свои сообщения
    Вы не можете голосовать в опросах
    Вы не можете прикреплять файлы к сообщениям
    Вы можете скачивать файлы